Register  ·  Log in
Forgot password?

  • Любовь – это идеальное преступление / L'amour est un crime parfait (Арно Ларьё, Жан-Мари Ларьё / Arnaud Larrieu, Jean-Marie Larrieu) [2013, Франция, Швейцария, триллер, драма, HDRip] MVO (Студия Позитив)

    Reply to topic
    Author Message


    Post 08-Aug-2014 14:29



    Любовь – это идеальное преступление / L'amour est un crime parfait
    Страна: Франция, Швейцария
    Жанр: триллер, драма
    Год выпуска: 2013
    Продолжительность: 01:50:34
    Перевод: Профессиональный (многоголосый закадровый) Студия Позитив
    Cубтитры: нет
    Оригинальная аудиодорожка: нет
    Режиссер: Арно Ларьё, Жан-Мари Ларьё / Arnaud Larrieu, Jean-Marie Larrieu
    В ролях: Матье Амальрик, Карин Вьяр, Майвенн Ле Беско, Сара Форестье, Дени Подалидес, Мэрион Дювал, Дамьен Дорсаз, Карл фон Малаисе
    Описание: У Марка, преподавателя литературы в лозаннском университете, репутация коллекционера любовных приключений со своими студентками. Одна из самых ярких завоеванных им студенток исчезает, и через несколько дней после этого Марк встречает Анну, которая стремится больше узнать об исчезновении своей падчерицы.
    Доп. информация:

    Качество видео: HDRip
    Формат видео: AVI
    Видео: 720x288 (2.50:1), 24.000 fps, XviD build 50 ~1688 kbps avg, 0.34 bit/pixel
    Аудио: 48 kHz, AC3 Dolby Digital, 2/0 (L,R) ch, ~192 kbps


    Complete name : C:\Users\Вика\Desktop\Lubovj.eto.idealjnoe.prestyplenie.2013.HDRip.avi
    Format : AVI
    Format/Info : Audio Video Interleave
    File size : 1.46 GiB
    Duration : 1h 50mn
    Overall bit rate : 1 890 Kbps
    Writing application : VirtualDubMod (build 2540/release)
    Writing library : VirtualDubMod build 2540/release
    ID : 0
    Format : MPEG-4 Visual
    Format profile : Advanced Simple@L5
    Format settings, BVOP : Yes
    Format settings, QPel : No
    Format settings, GMC : No warppoints
    Format settings, Matrix : Default (MPEG)
    Codec ID : XVID
    Codec ID/Hint : XviD
    Duration : 1h 50mn
    Bit rate : 1 688 Kbps
    Width : 720 pixels
    Height : 288 pixels
    Display aspect ratio : 2.500
    Frame rate : 24.000 fps
    Color space : YUV
    Chroma subsampling : 4:2:0
    Bit depth : 8 bits
    Scan type : Progressive
    Compression mode : Lossy
    Bits/(Pixel*Frame) : 0.339
    Stream size : 1.30 GiB (89%)
    Writing library : XviD 1.2.1 (UTC 2008-12-04)
    ID : 1
    Format : AC-3
    Format/Info : Audio Coding 3
    Mode extension : CM (complete main)
    Format settings, Endianness : Big
    Codec ID : 2000
    Duration : 1h 50mn
    Bit rate mode : Constant
    Bit rate : 192 Kbps
    Channel count : 2 channels
    Channel positions : Front: L R
    Sampling rate : 48.0 KHz
    Bit depth : 16 bits
    Compression mode : Lossy
    Stream size : 152 MiB (10%)
    Alignment : Split accross interleaves
    Interleave, duration : 42 ms (1.00 video frame)
    Interleave, preload duration : 500 ms


    Download .torrent

    Download free and at maximum speed!

    How to Download? · What is a torrent? · Ratings and Limitations

    The site does not extend and does not store electronic(digital) versions of products, and only gives access to a reference catalogue created by users on torrent-files which contain only lists of the hash-sums, the earnest entreaty, with complaints(abuse) to access directly to the user. Files for an exchange on tracker are given by users of a site, and the administration does not bear the responsibility for their maintenance. The request to not fill in the files protected by copyrights, and also files of the illegal maintenance!

    [Profile] [PM]
    Display posts from previous:    
    Reply to topic

    The time now is: Today 04:26

    All times are GMT + 3 Hours

    You cannot post new topics in this forum
    You cannot reply to topics in this forum
    You cannot edit your posts in this forum
    You cannot delete your posts in this forum
    You cannot vote in polls in this forum
    You cannot attach files in this forum
    You cannot download files in this forum