Register  ·  Log in
Forgot password?

  • Воздушный маршал / Non-Stop (Хауме Кольет-Серра / Jaume Collet-Serra) [2014, США, Детектив, триллер, боевик, BDRip] [Open Matte] Dub

    Reply to topic
    Author Message


    Post 08-Aug-2014 14:23



    Воздушный маршал / Non-Stop
    «Захват самолёта - это только начало»
    -Год выпуска: 2014
    Выпущено: Великобритания, Франция, США / Studio Canal
    Жанр: детектив, триллер, боевик
    Продолжительность: 01:46:03
    Перевод: Профессиональный (полное дублирование) BD RUS
    Субтитры: Русские (вшитые на СМС)-Режиссер:
    Хауме Кольет-Серра / Jaume Collet-Serra-В ролях:
    Лиам Нисон (Bill Marks), Джулианна Мур (Jen Summers), Скут МакНэйри (Tom Bowen), Мишель Докери (Nancy), Нэйт Паркер (Zack White), Кори Столл (Austin Reilly), Лупита Нионго (Gwen), Омар Метуолли (Dr. Fahim Nasir), Джейсон Батлер Харнер (Kyle Rice), Лайнас Роуч (David McMillan)-Описание:
    Межконтинентальный авиарейс. Билл Маркс, воздушный маршал, который обеспечивает безопасность пассажиров, получает сообщения с угрозами от маньяка-террориста. Преступник просчитал все ходы и подставил под обвинение самого спецагента. Теперь Маркс — цель спецслужб США. Ему остается одно: вычислить и обезвредить преступника, спасти пассажиров и свою любовь, которую он обретает на краю гибели. До взрыва остаются считанные минуты…-| IMDB | КиноПоиск | Сэмпл |-Качество: BDRip [ESP Transfer]
    Формат: AVI
    Видео: 688x384 (1.79:1), 24.000 fps, XviD build 73 ~1573 kbps avg, 0.25 bit/pixel
    Аудио: 48 kHz, AC3 Dolby Digital, 3/2 (L,C,R,l,r) + LFE ch, ~384.00 kbps avg



    Complete name                            : D:\Vozdushnyi_marshal_2014_BDRip_[Open_Matte]_by_Dalemake.avi
    Format                                   : AVI
    Format/Info                              : Audio Video Interleave
    File size                                : 1.46 GiB
    Duration                                 : 1h 46mn
    Overall bit rate                         : 1 967 Kbps
    Writing application                      : VirtualDubMod | || (build 2550/release)
    Writing library                          : VirtualDubMod build 2550/release
    ID                                       : 0
    Format                                   : MPEG-4 Visual
    Format profile                           : Advanced Simple@L5
    Format settings, BVOP                    : 1
    Format settings, QPel                    : No
    Format settings, GMC                     : No warppoints
    Format settings, Matrix                  : Custom
    Codec ID                                 : XVID
    Codec ID/Hint                            : XviD
    Duration                                 : 1h 46mn
    Bit rate                                 : 1 574 Kbps
    Width                                    : 688 pixels
    Height                                   : 384 pixels
    Display aspect ratio                     : 16:9
    Frame rate                               : 24.000 fps
    Color space                              : YUV
    Chroma subsampling                       : 4:2:0
    Bit depth                                : 8 bits
    Scan type                                : Progressive
    Compression mode                         : Lossy
    Bits/(Pixel*Frame)                       : 0.248
    Stream size                              : 1.17 GiB (80%)
    Writing library                          : XviD 73
    ID                                       : 1
    Format                                   : AC-3
    Format/Info                              : Audio Coding 3
    Mode extension                           : CM (complete main)
    Format settings, Endianness              : Big
    Codec ID                                 : 2000
    Duration                                 : 1h 46mn
    Bit rate mode                            : Constant
    Bit rate                                 : 384 Kbps
    Channel(s)                               : 6 channels
    Channel positions                        : Front: L C R, Side: L R, LFE
    Sampling rate                            : 48.0 KHz
    Bit depth                                : 16 bits
    Compression mode                         : Lossy
    Stream size                              : 291 MiB (20%)
    Alignment                                : Split accross interleaves
    Interleave, duration                     : 42 ms (1.00 video frame)
    Interleave, preload duration             : 500 ms
    Download .torrent

    Download free and at maximum speed!

    How to Download? · What is a torrent? · Ratings and Limitations

    The site does not extend and does not store electronic(digital) versions of products, and only gives access to a reference catalogue created by users on torrent-files which contain only lists of the hash-sums, the earnest entreaty, with complaints(abuse) to access directly to the user. Files for an exchange on tracker are given by users of a site, and the administration does not bear the responsibility for their maintenance. The request to not fill in the files protected by copyrights, and also files of the illegal maintenance!

    [Profile] [PM]
    Display posts from previous:    
    Reply to topic

    The time now is: Today 00:03

    All times are GMT + 3 Hours

    You cannot post new topics in this forum
    You cannot reply to topics in this forum
    You cannot edit your posts in this forum
    You cannot delete your posts in this forum
    You cannot vote in polls in this forum
    You cannot attach files in this forum
    You cannot download files in this forum