BitTorrentTracker PerecTracker.org
BitTorrentTracker PerecTracker.org
    
Регистрация  ·  Вход
 
 · 
Забыли пароль?

  • Кобра / Cobra (Джордж Пан Косматос / George Pan Cosmatos) [1986, США, боевик, триллер, BDRip] Dub (Варус Видео) + MVO (НТВ+)

    Ответить на тему
     
    Автор Сообщение

    Columb

    Создавать темы 08-Авг-2014 13:21

           

    [Цитировать]

    Кобра / Cobra
    Год выпуска: 1986
    Страна: США
    Жанр: боевик, триллер
    Продолжительность: 01:27:03
    Перевод: Профессиональный (дублированный) - Варус Видео
    Перевод 2: Профессиональный (многоголосый закадровый) - НТВ+ По Заказу НТВ
    Cубтитры: нет
    Режиссер: Джордж Пан Косматос / George Pan Cosmatos
    В ролях: Сильвестр Сталлоне (Lieutenant Marion «Cobra» Cobretti), Бриджит Нильсен (Ingrid), Рени Сантони (Sergeant Gonzales), Эндрю Робинсон (Detective Monte), Брайан Томпсон (Night Slasher), Джон Херцфелд (Cho), Ли Гарлингтон (Nancy Stalk), Арт ЛаФлёр (Captain Sears), Марко Родригес (Supermarket Killer), Росс Ст. Филипп (Security Guard)-Мировая премьера: 23 мая 1986-Описание: Он — «Кобра» — штурмовой отряд полиции из одного человека, ему достаётся кровавая работёнка, за которую никто не хочет (или не осмеливается) взяться. Он выходит на след убийцы, за которым целая армия преступников-маньяков, стремящихся уничтожить свидетельницу их кровавой вакханалии. Но, к счастью, она попадает под защиту «Кобры».-Доп. информация:
    За исходник видео большое спасибоkingsize87
    За оцифровку дубляжа Варус Видео с лицензионной видеокассеты большое спасибо Fikaloid.
    Запись перевода НТВ+ с последнего теле-показа по ТВ3 и синхрон переводов - JUSTKANT.--Рейтинг
    kinopoisk.ru: 6.871 (8780)
    imdb.com: 5.50 (37 310)
    MPAA: R - Лицам до 17 лет обязательно присутствие взрослого.-Качество видео: BDRip
    Формат видео: AVI -> //SAMPLE//
    Видео: XviD, 704x400 (16:9), 23.976 fps, 1995 kbps avg
    Аудио:
    1 - 48 khz, AC3 Dolby Digital, 2/0 (L,R) ch, ~192 kbps [Варус Видео] VHSRip
    2 - 48 khz, AC3 Dolby Digital, 2/0 (L,R) ch, ~192 kbps [НТВ+ По Заказу НТВ / РЕН ТВ / ТВ3] IPTVRip

    MediaInfo

    Общее
    Полное имя : E:\Альберт\Downloads\Кобра Варус Видео + НТВ-Поздний.avi
    Формат : AVI
    Формат/Информация : Audio Video Interleave
    Размер файла : 1,46 Гбайт
    Продолжительность : 1 ч. 27 м.
    Общий поток : 2393 Кбит/сек
    Название фильма : Cobra (1986) BDRip
    Режиссёр : Vиkt0R
    Жанр : Action/Crime/Thriller
    Программа кодирования : VirtualDubMod 1.5.10.2 (build 2540/release)
    Библиотека кодирования : VirtualDubMod build 2540/release
    Видео
    Идентификатор : 0
    Формат : MPEG-4 Visual
    Профиль формата : Advanced Simple@L5
    Параметр BVOP формата : 1
    Параметр QPel формата : Нет
    Параметр GMC формата : Без точки перехода
    Параметр матрицы формата : Выборочная
    Идентификатор кодека : XVID
    Идентификатор кодека/Подсказка : XviD
    Продолжительность : 1 ч. 27 м.
    Битрейт : 1995 Кбит/сек
    Ширина : 704 пикселя
    Высота : 400 пикселей
    Соотношение сторон : 16:9
    Частота кадров : 23,976 кадра/сек
    Цветовое пространство : YUV
    Субдискретизация насыщенности : 4:2:0
    Битовая глубина : 8 бит
    Тип развёртки : Прогрессивная
    Метод сжатия : С потерями
    Бит/(Пиксели*Кадры) : 0.296
    Размер потока : 1,21 Гбайт (83%)
    Библиотека кодирования : XviD 57
    Аудио #1
    Идентификатор : 1
    Формат : AC-3
    Формат/Информация : Audio Coding 3
    Расширение режима : CM (complete main)
    Параметр Endianness формата : Big
    Идентификатор кодека : 2000
    Продолжительность : 1 ч. 26 м.
    Вид битрейта : Постоянный
    Битрейт : 192 Кбит/сек
    Каналы : 2 канала
    Расположение каналов : Front: L R
    Частота : 48,0 КГц
    Битовая глубина : 16 бит
    Метод сжатия : С потерями
    Размер потока : 119 Мбайт (8%)
    Выравнивание : Разделение по промежуткам
    Продолжительность промежутка : 42 мс. (1,00 видеокадр)
    Время предзагрузки промежутка : 500 мс.
    Аудио #2
    Идентификатор : 2
    Формат : AC-3
    Формат/Информация : Audio Coding 3
    Расширение режима : CM (complete main)
    Параметр Endianness формата : Big
    Идентификатор кодека : 2000
    Продолжительность : 1 ч. 26 м.
    Вид битрейта : Постоянный
    Битрейт : 192 Кбит/сек
    Каналы : 2 канала
    Расположение каналов : Front: L R
    Частота : 48,0 КГц
    Битовая глубина : 16 бит
    Метод сжатия : С потерями
    Размер потока : 119 Мбайт (8%)
    Выравнивание : Разделение по промежуткам
    Продолжительность промежутка : 42 мс. (1,00 видеокадр)
    Время предзагрузки промежутка : 500 мс.

    Скриншот c названием фильма

    Скриншоты

    Скачать .torrent

    Скачать торрент-файл бесплатно и на максимальной скорости!

    Как скачивать? · Что такое торрент? · Рейтинг и ограничения

    !ВНИМАНИЕ!
    Сайт не распространяет и не хранит электронные версии произведений, а занимается лишь лишь предоставлением доступа к создаваемому пользователями каталогу ссылок на торрент-файлы, которые содержат только списки хеш-сумм, убедительная просьба с жалобами обращаться напрямую к пользователю. Файлы для обмена на трекере предоставлены пользователями сайта, и администрация не несёт ответственности за их содержание. Просьба не заливать файлы, защищенные авторскими правами, а также файлы нелегального содержания!

    [Профиль] [ЛС]
    Показать сообщения:    
    Ответить на тему

    Текущее время: Сегодня, в 22:03

    Часовой пояс: GMT + 2



    Вы не можете начинать темы
    Вы не можете отвечать на сообщения
    Вы не можете редактировать свои сообщения
    Вы не можете удалять свои сообщения
    Вы не можете голосовать в опросах
    Вы не можете прикреплять файлы к сообщениям
    Вы не можете скачивать файлы