BitTorrentTracker PerecTracker.org
BitTorrentTracker PerecTracker.org
    
Регистрация  ·  Вход
 
 · 
Забыли пароль?

  • Эмиль из Лённеберге / Emil in Lonneberga / Emil i Lönneberga (Улле Хелльбум / Olle Hellbom) [1971, Швеция, Германия, драма, семейный, BDRip] MVO (Омикрон)

    Ответить на тему
     
    Автор Сообщение

    Columb

    Создавать темы 08-Авг-2014 13:14

           

    [Цитировать]

    Эмиль из Лённеберге / Emil in Lonneberga / Emil i Lönneberga-Год выпуска: 1971
    Выпущено: Швеция, Германия
    Жанр: драма, семейный
    Продолжительность: 01:36:31
    Перевод: Профессиональный (многоголосый, закадровый) Омикрон
    Субтитры: нет-Режиссер: Улле Хелльбум / Olle Hellbom
    В ролях: Ян Олссон, Лена Визборг, Аллан Эдвалль, Эми Сторм, Бьёрн Густафссон, Мод Ханссон, Мими Поллак, Георг Арлин, Карста Лёкк, Ханнелор Шрот
    О фильме: По одноименной повести Астрид Линдгрен. В не очень далекой стране Швеции живет вихрастый мальчишка с голубыми глазами по имени Эмиль. Он без конца попадает в различные переделки: залепляет тортом в лицо бургомистра, падает в черничный кисель, вместе с петухом и поросенком объедается пьяными вишнями и все это с самыми благими намерениями.
    Релиз:
    Автор: kingsize87
    Качество: BDRip (источник: / BDRemux / 1080p)
    Формат: AVI
    Видео: 720x400 (1.80:1), 24 fps, XviD build 65 ~ 1949 kbps avg, 0.28 bit/pixel
    Аудио: 48 kHz, AC3 Dolby Digital, 2/0 (L,R), ~192.00 kbps avg
    Размер: 1485.05 Mb (1/3 DVD-R)
    Скачать: Семпл-

    Кадры из фильма

    -

    Mi

    Формат : AVI
    Формат/Информация : Audio Video Interleave
    Размер файла : 1,45 Гбайт
    Продолжительность : 1 ч. 36 м.
    Общий поток : 2151 Кбит/сек
    Название фильма : Эмиль из Лённеберге / Emil in Lonneberga / Emil i Lonneberga (1971) BDRip
    Режиссёр : kingsize87
    Программа кодирования : VirtualDubMod 1.5.10.2 (build 2540/release)
    Правообладатель : HQCLUB
    Примечание : 08.08.2014
    Видео
    Идентификатор : 0
    Формат : MPEG-4 Visual
    Профиль формата : Advanced Simple@L5
    Параметр BVOP формата : 1
    Параметр QPel формата : Нет
    Параметр GMC формата : Без точки перехода
    Параметр матрицы формата : Выборочная
    Идентификатор кодека : XVID
    Идентификатор кодека/Подсказка : XviD
    Продолжительность : 1 ч. 36 м.
    Битрейт : 1950 Кбит/сек
    Ширина : 720 пикселей
    Высота : 400 пикселей
    Соотношение сторон : 16:9
    Частота кадров : 24,000 кадра/сек
    Цветовое пространство : YUV
    Субдискретизация насыщенности : 4:2:0
    Битовая глубина : 8 бит
    Тип развёртки : Прогрессивная
    Метод сжатия : С потерями
    Бит/(Пиксели*Кадры) : 0.282
    Размер потока : 1,31 Гбайт (91%)
    Библиотека кодирования : XviD 65
    Аудио
    Идентификатор : 1
    Формат : AC-3
    Формат/Информация : Audio Coding 3
    Расширение режима : CM (complete main)
    Параметр Endianness формата : Big
    Идентификатор кодека : 2000
    Продолжительность : 1 ч. 36 м.
    Вид битрейта : Постоянный
    Битрейт : 192 Кбит/сек
    Каналы : 2 канала
    Расположение каналов : Front: L R
    Частота : 48,0 КГц
    Битовая глубина : 16 бит
    Метод сжатия : С потерями
    Размер потока : 133 Мбайт (9%)
    Выравнивание : Разделение по промежуткам
    Продолжительность промежутка : 42 мс. (1,00 видеокадр)
    Время предзагрузки промежутка : 500 мс.
    -Цитата:
    Цитата:

    * Русская дорожка получена наложением чистого голоса.
    * Озвучивание осуществлено в рамках сервиса "Озвучивание". Спонсоры: RAUL, BLADE, Кириллка, dinocrisis, ukunkun, tft, cactus, docik, MDV, DeTorquemada, GarfieldX, Cheetah, mcevg, Apparabellum, NaIV, beware1, zlodei24, tatkhmeln, Falk, Replikator, kanisserik, dt01, Efish, daikan, A3B5, Ruroni_spb.
    * Исходный диск приобретен в рамках "Копилка: Помоги с Blu-ray". Благодарим: rifkatg, tambov68, GenRipper, MDV, NaIV, tatkhmeln, dpoint, dt01.
    Скачать .torrent

    Скачать торрент-файл бесплатно и на максимальной скорости!

    Как скачивать? · Что такое торрент? · Рейтинг и ограничения

    !ВНИМАНИЕ!
    Сайт не распространяет и не хранит электронные версии произведений, а занимается лишь лишь предоставлением доступа к создаваемому пользователями каталогу ссылок на торрент-файлы, которые содержат только списки хеш-сумм, убедительная просьба с жалобами обращаться напрямую к пользователю. Файлы для обмена на трекере предоставлены пользователями сайта, и администрация не несёт ответственности за их содержание. Просьба не заливать файлы, защищенные авторскими правами, а также файлы нелегального содержания!

    [Профиль] [ЛС]
    Показать сообщения:    
    Ответить на тему

    Текущее время: Сегодня, в 10:43

    Часовой пояс: GMT + 2



    Вы не можете начинать темы
    Вы не можете отвечать на сообщения
    Вы не можете редактировать свои сообщения
    Вы не можете удалять свои сообщения
    Вы не можете голосовать в опросах
    Вы не можете прикреплять файлы к сообщениям
    Вы не можете скачивать файлы