Register  ·  Log in
Forgot password?

  • Белая молния / White Lightning (Джозеф Сарджент / Joseph Sargent) [1973, США, Боевик, Драма, Криминал, HDTVRip] DVO

    Reply to topic
    Author Message


    Post 08-Aug-2014 14:12



    Белая молния / White Lightning
    Страна: США
    Жанр: Боевик, Драма, Криминал
    Год выпуска: 1973
    Продолжительность: 01:36:53
    Перевод: Профессиональный (двухголосый закадровый) НТВ+
    Cубтитры: нет
    Режиссер: Джозеф Сарджент / Joseph Sargent
    В ролях: Берт Рейнолдс, Дженнифер Биллингсли, Нед Битти, Бо Хопкинс, Мэтт Кларк, Дайэн Лэдд, Р.Джи. Армстронг, Конлэн Картер, Даббс Грир, Линкольн Демиан, Джон Стэдмен, Айрис Корн
    Описание: Заключенный (Берт Рейнолдс) идет на сделку с властями, чтобы помочь разоблачить преступного шерифа, убившего его брата. Хороший боевик с хорошими актерами.
    Доп. информация: За предоставленный рип благодарим Ledy_X
    "Спасибы" просьба ПИСАТЬ в теме, тем самым вы продлеваете жизнь раздаче.
    Качество видео: HDTVRip [Исходник 1080i]
    Формат видео: AVI
    Видео: 720x400 (1.80:1), 25 fps, XviD build 50 ~1956 kbps avg, 0.27 bit/pixel
    Аудио: 48 kHz, AC3 Dolby Digital, 2/0 (L,R) ch, ~192 kbps


    Белая молния - White Lightning [Rip by Ledy_X].avi
    Format : AVI
    Format/Info : Audio Video Interleave
    File size : 1.46 GiB
    Duration : 1h 36mn
    Overall bit rate : 2 158 Kbps
    Movie name : Белая молния - White Lightning [Rip by Ledy_X]
    Director : Rip by Ledy_X
    Writing application : VirtualDubMod | || (build 2550/release)
    Copyright : Edich2
    Comment :
    ID : 0
    Format : MPEG-4 Visual
    Format profile : Advanced Simple@L5
    Format settings, BVOP : 1
    Format settings, QPel : No
    Format settings, GMC : No warppoints
    Format settings, Matrix : Default (MPEG)
    Codec ID : XVID
    Codec ID/Hint : XviD
    Duration : 1h 36mn
    Bit rate : 1 956 Kbps
    Width : 720 pixels
    Height : 400 pixels
    Display aspect ratio : 16:9
    Frame rate : 25.000 fps
    Color space : YUV
    Chroma subsampling : 4:2:0
    Bit depth : 8 bits
    Scan type : Progressive
    Compression mode : Lossy
    Bits/(Pixel*Frame) : 0.272
    Stream size : 1.32 GiB (91%)
    Writing library : XviD 1.2.1 (UTC 2008-12-04)
    ID : 1
    Format : AC-3
    Format/Info : Audio Coding 3
    Mode extension : CM (complete main)
    Format settings, Endianness : Big
    Codec ID : 2000
    Duration : 1h 36mn
    Bit rate mode : Constant
    Bit rate : 192 Kbps
    Channel(s) : 2 channels
    Channel positions : Front: L R
    Sampling rate : 48.0 KHz
    Bit depth : 16 bits
    Compression mode : Lossy
    Stream size : 133 MiB (9%)
    Alignment : Split accross interleaves
    Interleave, duration : 40 ms (1.00 video frame)
    Interleave, preload duration : 500 ms


    Download .torrent

    Download free and at maximum speed!

    How to Download? · What is a torrent? · Ratings and Limitations

    The site does not extend and does not store electronic(digital) versions of products, and only gives access to a reference catalogue created by users on torrent-files which contain only lists of the hash-sums, the earnest entreaty, with complaints(abuse) to access directly to the user. Files for an exchange on tracker are given by users of a site, and the administration does not bear the responsibility for their maintenance. The request to not fill in the files protected by copyrights, and also files of the illegal maintenance!

    [Profile] [PM]
    Display posts from previous:    
    Reply to topic

    The time now is: Today 18:03

    All times are GMT + 3 Hours

    You cannot post new topics in this forum
    You cannot reply to topics in this forum
    You cannot edit your posts in this forum
    You cannot delete your posts in this forum
    You cannot vote in polls in this forum
    You cannot attach files in this forum
    You cannot download files in this forum