BitTorrentTracker PerecTracker.org
BitTorrentTracker PerecTracker.org
    
Регистрация  ·  Вход
 
 · 
Забыли пароль?

  • Принцесса енот / Princess raccoon / Operetta tanuki goten (Сэйдзюн Судзуки / Seijun Suzuki) [2005, Япония, комедия, фантазия, музыка, DVDRip] AVO (С. Кузнецов) + Original Jap

    Ответить на тему
     
    Автор Сообщение

    Columb

    Создавать темы 08-Авг-2014 13:00

           

    [Цитировать]

    Принцесса енот / Princess raccoon / Operetta tanuki goten
    Страна: Япония
    Студия: Ogura Jimusyo Co., Dentsu, Eisei Gekijo
    Жанр: комедия, фантазия, музыка
    Год выпуска: 2005
    Продолжительность: 01:50:32
    Перевод: Авторский (одноголосый закадровый) С. Кузнецов
    Cубтитры: нет
    Оригинальная аудиодорожка: японский
    Режиссер: Сэйдзюн Судзуки / Seijun Suzuki
    В ролях: Чжан Цзыи, Дзё Одагири, Хироко Якушимару, Микидзиро Хира
    Описание: Принц Амечио изгнан из небесного царства своим отцом, который боится, что сын затмит его своей красотой. Скитаясь по Земле, прекрасный принц Амечио встречает странную девушку. Как потом выясняется, это никто иная как сама Принцесса Енотов (Танукихиме), хитрых бестий. Вскоре Амечио попадает в плен к енотам, а его отец подсылает к нему своих придворных, чтобы они убили его.
    II Сэмпл II IMDB II
    Релиз группа:
    Доп. информация:
    За исходник спасибо tong777
    Качество видео: DVDRip
    Формат видео: AVI
    Видео: Xvid 704x400 (16:9) 25.0fps Bit rate 1503Kbps b/p 0.214
    Аудио 1: AC3 48.0 KHz 2ch. 192kbps rus
    Аудио 2: AC3 48.0 KHz 2ch. 192kbps jap

    MediaInfo

    Общее
    Полное имя : E:\torrent\Princess.raccoon.2005.DVDRip.avi
    Формат : AVI
    Формат/Информация : Audio Video Interleave
    Размер файла : 1,47 Гбайт
    Продолжительность : 1 ч. 50 м.
    Общий поток : 1902 Кбит/сек
    Программа кодирования : VirtualDubMod 1.5.10.2 (build 2542/release)
    Библиотека кодирования : VirtualDubMod build 2542/release
    Видео
    Идентификатор : 0
    Формат : MPEG-4 Visual
    Профиль формата : Advanced Simple@L5
    Параметр BVOP формата : 2
    Параметр QPel формата : Нет
    Параметр GMC формата : Без точки перехода
    Параметр матрицы формата : Default (H.263)
    Идентификатор кодека : XVID
    Идентификатор кодека/Подсказка : XviD
    Продолжительность : 1 ч. 50 м.
    Битрейт : 1503 Кбит/сек
    Ширина : 704 пикселя
    Высота : 400 пикселей
    Соотношение сторон : 16:9
    Частота кадров : 25,000 кадров/сек
    Цветовое пространство : YUV
    Субдискретизация насыщенности : 4:2:0
    Битовая глубина : 8 бит
    Тип развёртки : Прогрессивная
    Метод сжатия : С потерями
    Бит/(Пиксели*Кадры) : 0.214
    Размер потока : 1,16 Гбайт (79%)
    Библиотека кодирования : XviD 65
    Аудио #1
    Идентификатор : 1
    Формат : AC-3
    Формат/Информация : Audio Coding 3
    Расширение режима : CM (complete main)
    Параметр Endianness формата : Big
    Идентификатор кодека : 2000
    Продолжительность : 1 ч. 50 м.
    Вид битрейта : Постоянный
    Битрейт : 192 Кбит/сек
    Каналы : 2 канала
    Расположение каналов : Front: L R
    Частота : 48,0 КГц
    Битовая глубина : 16 бит
    Метод сжатия : С потерями
    Размер потока : 152 Мбайт (10%)
    Выравнивание : Разделение по промежуткам
    Продолжительность промежутка : 40 мс. (1,00 видеокадр)
    Время предзагрузки промежутка : 500 мс.
    Аудио #2
    Идентификатор : 2
    Формат : AC-3
    Формат/Информация : Audio Coding 3
    Расширение режима : CM (complete main)
    Параметр Endianness формата : Big
    Идентификатор кодека : 2000
    Продолжительность : 1 ч. 50 м.
    Вид битрейта : Постоянный
    Битрейт : 192 Кбит/сек
    Каналы : 2 канала
    Расположение каналов : Front: L R
    Частота : 48,0 КГц
    Битовая глубина : 16 бит
    Метод сжатия : С потерями
    Размер потока : 152 Мбайт (10%)
    Выравнивание : Разделение по промежуткам
    Продолжительность промежутка : 40 мс. (1,00 видеокадр)
    Время предзагрузки промежутка : 500 мс.

    Скриншот c названием фильма

    Скриншоты


    Скачать .torrent

    Скачать торрент-файл бесплатно и на максимальной скорости!

    Как скачивать? · Что такое торрент? · Рейтинг и ограничения

    !ВНИМАНИЕ!
    Сайт не распространяет и не хранит электронные версии произведений, а занимается лишь лишь предоставлением доступа к создаваемому пользователями каталогу ссылок на торрент-файлы, которые содержат только списки хеш-сумм, убедительная просьба с жалобами обращаться напрямую к пользователю. Файлы для обмена на трекере предоставлены пользователями сайта, и администрация не несёт ответственности за их содержание. Просьба не заливать файлы, защищенные авторскими правами, а также файлы нелегального содержания!

    [Профиль] [ЛС]
    Показать сообщения:    
    Ответить на тему

    Текущее время: Сегодня, в 19:32

    Часовой пояс: GMT + 2



    Вы не можете начинать темы
    Вы не можете отвечать на сообщения
    Вы не можете редактировать свои сообщения
    Вы не можете удалять свои сообщения
    Вы не можете голосовать в опросах
    Вы не можете прикреплять файлы к сообщениям
    Вы не можете скачивать файлы