BitTorrentTracker PerecTracker.org
BitTorrentTracker PerecTracker.org
    
Регистрация  ·  Вход
 
 · 
Забыли пароль?

  • Elvis Presley - Love Me Tender [2006 г., Rock'n'Roll/ Rockabilly, DVD5]

    Ответить на тему
     
    Автор Сообщение

    Columb

    Создавать темы 06-Авг-2014 20:46

           

    [Цитировать]

    Elvis Presley - Love Me Tender
    Страна: U K
    Жанр: Rock'n'Roll/ Rockabilly
    Продолжительность: 01:13:58
    Год выпуска: 2006 г.
    Лейбл: AllStars
    Треклист:
    1 Introduction
    2 Burning love
    3 I got a woman
    4 That's all right mama
    5 Something
    6 Hound dog
    7 Baby what you want to do
    8 You gave me a mountain
    9 Heartbreak hotel
    10 Blue suede shoes
    11 Steamroller blues
    12 Love me tender
    13 Lawdy miss clawdy
    14 My way
    15 I can't stop loving you
    16 Are you lonesome tonight?
    17 Love me
    18 Just pretend
    19 Medley: When my blue moon turns../Blue christmas
    20 Johnny b. goode
    21 The wonder of you
    22 Tryin' to get to you
    23 It's over
    24 In the ghetto
    25 One night
    26 Heavenly luck up in heaven
    Разбивка на главы по трекам: есть
    Качество : DVD5
    Формат: DVD video
    Видео кодек: MPEG2
    Аудио кодек: AC3
    Видео: PAL 4:3 (720x576) VBR
    Аудио: Not specified (Dolby AC3, 6 ch)(L,C,R,SL,SR)+LFE ch, 448 kbps

    DVDinfo

    : D:\Razdaca\Elvis Presley Love Me Tender In Concert\VIDEO_TS\VIDEO_TS.BUPФормат : DVD VideoПрофиль формата : MenuРазмер файла : 12,0 КбайтРежим общего битрейта : Переменный
    ВидеоИдентификатор : 224 (0xE0)Формат : MPEG VideoВерсия формата : Version 2Вид битрейта : ПеременныйШирина : 720 пикселейВысота : 576 пикселейСоотношение сторон : 4:3Частота кадров : 25,000 кадров/секСтандарт вещания : PALМетод сжатия : С потерями
    АудиоФормат : AC-3Формат/Информация : Audio Coding 3Каналы : 6 каналовЧастота : 48,0 КГцМетод сжатия : С потерями
    ТекстФормат : RLEФормат/Информация : Run-length encodingБитовая глубина : 2 бит
    ОбщееПолное имя : D:\Razdaca\Elvis Presley Love Me Tender In Concert\VIDEO_TS\VIDEO_TS.IFOФормат : DVD VideoПрофиль формата : MenuРазмер файла : 12,0 КбайтРежим общего битрейта : Переменный
    ВидеоИдентификатор : 224 (0xE0)Формат : MPEG VideoВерсия формата : Version 2Вид битрейта : ПеременныйШирина : 720 пикселейВысота : 576 пикселейСоотношение сторон : 4:3Частота кадров : 25,000 кадров/секСтандарт вещания : PALМетод сжатия : С потерями
    АудиоФормат : AC-3Формат/Информация : Audio Coding 3Каналы : 6 каналовЧастота : 48,0 КГцМетод сжатия : С потерями
    ТекстФормат : RLEФормат/Информация : Run-length encodingБитовая глубина : 2 бит
    ОбщееПолное имя : D:\Razdaca\Elvis Presley Love Me Tender In Concert\VIDEO_TS\VIDEO_TS.VOBФормат : MPEG-PSРазмер файла : 12,8 МбайтПродолжительность : 11 с.Общий поток : 9773 Кбит/сек
    ВидеоИдентификатор : 224 (0xE0)Формат : MPEG VideoВерсия формата : Version 2Профиль формата : Main@MainПараметр BVOP формата : ДаПараметр матрицы формата : ВыборочнаяПараметр GOP формата : VariableПродолжительность : 11 с.Битрейт : 9130 Кбит/секМаксимальный битрейт : 9000 Кбит/секШирина : 720 пикселейВысота : 576 пикселейСоотношение сторон : 4:3Частота кадров : 25,000 кадров/секСтандарт вещания : PALЦветовое пространство : YUVСубдискретизация насыщенности : 4:2:0Битовая глубина : 8 битМетод сжатия : С потерямиБит/(Пиксели*Кадры) : 0.881Размер потока : 12,0 Мбайт (93%)Основные цвета : BT.601 NTSCХарактеристики трансфера : BT.601Коэффициенты матрицы : BT.601
    АудиоИдентификатор : 189 (0xBD)-128 (0x80)Формат : AC-3Формат/Информация : Audio Coding 3Расширение режима : CM (complete main)Параметр Endianness формата : BigРежим смешивания : DVD-VideoПродолжительность : 11 с.Вид битрейта : ПостоянныйБитрейт : 448 Кбит/секКаналы : 6 каналовРасположение каналов : Front: L C R, Side: L R, LFEЧастота : 48,0 КГцБитовая глубина : 16 битМетод сжатия : С потерямиЗадержка видео : -106 мс.Размер потока : 602 Кбайт (5%)
    ТекстИдентификатор : 189 (0xBD)-32 (0x20)Формат : RLEФормат/Информация : Run-length encodingРежим смешивания : DVD-Video
    Меню
    ОбщееПолное имя : D:\Razdaca\Elvis Presley Love Me Tender In Concert\VIDEO_TS\VTS_01_0.BUPФормат : DVD VideoПрофиль формата : ProgramРазмер файла : 52,0 КбайтПродолжительность : 1 ч. 11 м.Режим общего битрейта : ПеременныйОбщий поток : 100 бит/сек
    ВидеоИдентификатор : 224 (0xE0)Формат : MPEG VideoВерсия формата : Version 2Продолжительность : 1 ч. 11 м.Вид битрейта : ПеременныйШирина : 720 пикселейВысота : 576 пикселейСоотношение сторон : 4:3Частота кадров : 25,000 кадров/секСтандарт вещания : PALМетод сжатия : С потерями
    АудиоИдентификатор : 128 (0x80)Формат : AC-3Формат/Информация : Audio Coding 3Продолжительность : 1 ч. 11 м.Каналы : 6 каналовЧастота : 48,0 КГцМетод сжатия : С потерями
    Меню #1Продолжительность : 1 ч. 11 м.00:00:00.000 : Chapter 100:02:50.240 : Chapter 200:05:21.440 : Chapter 300:08:34.240 : Chapter 400:12:21.600 : Chapter 500:13:32.400 : Chapter 600:16:52.680 : Chapter 700:20:11.840 : Chapter 800:22:05.240 : Chapter 900:24:29.840 : Chapter 1000:27:33.040 : Chapter 1100:31:56.960 : Chapter 1200:34:49.560 : Chapter 1300:38:48.360 : Chapter 1400:40:57.960 : Chapter 1500:43:45.360 : Chapter 1600:45:34.400 : Chapter 1700:49:13.400 : Chapter 1800:52:24.200 : Chapter 1900:54:07.280 : Chapter 2000:56:33.680 : Chapter 2100:59:37.880 : Chapter 2201:01:46.880 : Chapter 2301:04:21.680 : Chapter 2401:07:22.480 : Chapter 25List (Audio) : 0
    Меню #2Продолжительность : 2 м. 40 с.00:00:00.000 : Chapter 1List (Audio) : 0
    Меню #3
    ОбщееПолное имя : D:\Razdaca\Elvis Presley Love Me Tender In Concert\VIDEO_TS\VTS_01_0.IFOФормат : DVD VideoПрофиль формата : ProgramРазмер файла : 52,0 КбайтПродолжительность : 1 ч. 11 м.Режим общего битрейта : ПеременныйОбщий поток : 100 бит/сек
    ВидеоИдентификатор : 224 (0xE0)Формат : MPEG VideoВерсия формата : Version 2Продолжительность : 1 ч. 11 м.Вид битрейта : ПеременныйШирина : 720 пикселейВысота : 576 пикселейСоотношение сторон : 4:3Частота кадров : 25,000 кадров/секСтандарт вещания : PALМетод сжатия : С потерями
    АудиоИдентификатор : 128 (0x80)Формат : AC-3Формат/Информация : Audio Coding 3Продолжительность : 1 ч. 11 м.Каналы : 6 каналовЧастота : 48,0 КГцМетод сжатия : С потерями
    Меню #1Продолжительность : 1 ч. 11 м.00:00:00.000 : Chapter 100:02:50.240 : Chapter 200:05:21.440 : Chapter 300:08:34.240 : Chapter 400:12:21.600 : Chapter 500:13:32.400 : Chapter 600:16:52.680 : Chapter 700:20:11.840 : Chapter 800:22:05.240 : Chapter 900:24:29.840 : Chapter 1000:27:33.040 : Chapter 1100:31:56.960 : Chapter 1200:34:49.560 : Chapter 1300:38:48.360 : Chapter 1400:40:57.960 : Chapter 1500:43:45.360 : Chapter 1600:45:34.400 : Chapter 1700:49:13.400 : Chapter 1800:52:24.200 : Chapter 1900:54:07.280 : Chapter 2000:56:33.680 : Chapter 2100:59:37.880 : Chapter 2201:01:46.880 : Chapter 2301:04:21.680 : Chapter 2401:07:22.480 : Chapter 25List (Audio) : 0
    Меню #2Продолжительность : 2 м. 40 с.00:00:00.000 : Chapter 1List (Audio) : 0
    Меню #3
    ОбщееПолное имя : D:\Razdaca\Elvis Presley Love Me Tender In Concert\VIDEO_TS\VTS_01_0.VOBФормат : MPEG-PSРазмер файла : 224 КбайтПродолжительность : 68 мс.Общий поток : 27,0 Мбит/сек
    ВидеоИдентификатор : 224 (0xE0)Формат : MPEG VideoВерсия формата : Version 2Профиль формата : Main@MainПараметр BVOP формата : НетПараметр матрицы формата : ВыборочнаяПродолжительность : 68 мс.Максимальный битрейт : 9000 Кбит/секШирина : 720 пикселейВысота : 576 пикселейСоотношение сторон : 4:3Частота кадров : 25,000 кадров/секСтандарт вещания : PALЦветовое пространство : YUVСубдискретизация насыщенности : 4:2:0Битовая глубина : 8 битТип развёртки : ПрогрессивнаяПорядок развёртки : Верхнее поле первоеМетод сжатия : С потерямиОсновные цвета : BT.601 NTSCХарактеристики трансфера : BT.601Коэффициенты матрицы : BT.601
    ТекстИдентификатор : 189 (0xBD)-32 (0x20)Формат : RLEФормат/Информация : Run-length encodingРежим смешивания : DVD-VideoПродолжительность : 23 мс.
    Меню
    ОбщееПолное имя : D:\Razdaca\Elvis Presley Love Me Tender In Concert\VIDEO_TS\VTS_01_1.VOBФормат : MPEG-PSРазмер файла : 1024 МбайтПродолжительность : 25 м.Общий поток : 5553 Кбит/сек
    ВидеоИдентификатор : 224 (0xE0)Формат : MPEG VideoВерсия формата : Version 2Профиль формата : Main@MainПараметр BVOP формата : ДаПараметр матрицы формата : ВыборочнаяПараметр GOP формата : VariableПродолжительность : 25 м.Битрейт : 5000 Кбит/секШирина : 720 пикселейВысота : 576 пикселейСоотношение сторон : 4:3Частота кадров : 25,000 кадров/секСтандарт вещания : PALЦветовое пространство : YUVСубдискретизация насыщенности : 4:2:0Битовая глубина : 8 битТип развёртки : ЧересстрочнаяПорядок развёртки : Верхнее поле первоеМетод сжатия : С потерямиБит/(Пиксели*Кадры) : 0.482Размер потока : 921 Мбайт (90%)
    АудиоИдентификатор : 189 (0xBD)-128 (0x80)Формат : AC-3Формат/Информация : Audio Coding 3Расширение режима : CM (complete main)Параметр Endianness формата : BigРежим смешивания : DVD-VideoПродолжительность : 25 м.Вид битрейта : ПостоянныйБитрейт : 448 Кбит/секКаналы : 6 каналовРасположение каналов : Front: L C R, Side: L R, LFEЧастота : 48,0 КГцБитовая глубина : 16 битМетод сжатия : С потерямиЗадержка видео : -64 мс.Размер потока : 82,6 Мбайт (8%)
    Меню
    ОбщееПолное имя : D:\Razdaca\Elvis Presley Love Me Tender In Concert\VIDEO_TS\VTS_01_2.VOBФормат : MPEG-PSРазмер файла : 1024 МбайтПродолжительность : 25 м.Общий поток : 5553 Кбит/сек
    ВидеоИдентификатор : 224 (0xE0)Формат : MPEG VideoВерсия формата : Version 2Профиль формата : Main@MainПараметр BVOP формата : ДаПараметр матрицы формата : ВыборочнаяПараметр GOP формата : M=3, N=15Продолжительность : 25 м.Битрейт : 5000 Кбит/секШирина : 720 пикселейВысота : 576 пикселейСоотношение сторон : 4:3Частота кадров : 25,000 кадров/секСтандарт вещания : PALЦветовое пространство : YUVСубдискретизация насыщенности : 4:2:0Битовая глубина : 8 битТип развёртки : ЧересстрочнаяПорядок развёртки : Верхнее поле первоеМетод сжатия : С потерямиБит/(Пиксели*Кадры) : 0.482Размер потока : 921 Мбайт (90%)
    АудиоИдентификатор : 189 (0xBD)-128 (0x80)Формат : AC-3Формат/Информация : Audio Coding 3Расширение режима : CM (complete main)Параметр Endianness формата : BigРежим смешивания : DVD-VideoПродолжительность : 25 м.Вид битрейта : ПостоянныйБитрейт : 448 Кбит/секКаналы : 6 каналовРасположение каналов : Front: L C R, Side: L R, LFEЧастота : 48,0 КГцБитовая глубина : 16 битМетод сжатия : С потерямиЗадержка видео : -136 мс.Размер потока : 82,6 Мбайт (8%)
    Меню
    ОбщееПолное имя : D:\Razdaca\Elvis Presley Love Me Tender In Concert\VIDEO_TS\VTS_01_3.VOBФормат : MPEG-PSРазмер файла : 908 Мбайт
    ВидеоИдентификатор : 224 (0xE0)Формат : MPEG VideoВерсия формата : Version 2Профиль формата : Main@MainПараметр BVOP формата : ДаПараметр матрицы формата : ВыборочнаяПараметр GOP формата : M=3, N=15Максимальный битрейт : 5000 Кбит/секШирина : 720 пикселейВысота : 576 пикселейСоотношение сторон : 4:3Частота кадров : 25,000 кадров/секСтандарт вещания : PALЦветовое пространство : YUVСубдискретизация насыщенности : 4:2:0Битовая глубина : 8 битТип развёртки : ЧересстрочнаяПорядок развёртки : Верхнее поле первоеМетод сжатия : С потерями
    АудиоИдентификатор : 189 (0xBD)-128 (0x80)Формат : AC-3Формат/Информация : Audio Coding 3Расширение режима : CM (complete main)Параметр Endianness формата : BigРежим смешивания : DVD-VideoВид битрейта : ПостоянныйБитрейт : 448 Кбит/секКаналы : 6 каналовРасположение каналов : Front: L C R, Side: L R, LFEЧастота : 48,0 КГцБитовая глубина : 16 битМетод сжатия : С потерямиЗадержка видео : -104 мс.
    Меню

    Скриншоты меню

    Скриншоты

    Скачать .torrent

    Скачать торрент-файл бесплатно и на максимальной скорости!

    Как скачивать? · Что такое торрент? · Рейтинг и ограничения

    !ВНИМАНИЕ!
    Сайт не распространяет и не хранит электронные версии произведений, а занимается лишь лишь предоставлением доступа к создаваемому пользователями каталогу ссылок на торрент-файлы, которые содержат только списки хеш-сумм, убедительная просьба с жалобами обращаться напрямую к пользователю. Файлы для обмена на трекере предоставлены пользователями сайта, и администрация не несёт ответственности за их содержание. Просьба не заливать файлы, защищенные авторскими правами, а также файлы нелегального содержания!

    [Профиль] [ЛС]
    Показать сообщения:    
    Ответить на тему

    Текущее время: Сегодня, в 02:34

    Часовой пояс: GMT + 2



    Вы не можете начинать темы
    Вы не можете отвечать на сообщения
    Вы не можете редактировать свои сообщения
    Вы не можете удалять свои сообщения
    Вы не можете голосовать в опросах
    Вы не можете прикреплять файлы к сообщениям
    Вы не можете скачивать файлы