BitTorrentTracker PerecTracker.org
BitTorrentTracker PerecTracker.org
    
Регистрация  ·  Вход
 
 · 
Забыли пароль?

  • Глубокое синее море / Deep Blue Sea (Ренни Харлин / Renny Harlin) [1999, США, Австралия, фантастика, боевик, триллер, SATRip] Dub ("Мосфильм") [Полноэкранная версия / Full Screen]

    Ответить на тему
     
    Автор Сообщение

    Columb

    Создавать темы 28-Июн-2014 12:20

           

    [Цитировать]

    Глубокое синее море / Deep Blue Sea / Полноэкранная версия / Full Screen
    «Больше. Умнее. Быстрее. Злее»
    -Страна: США, Австралия
    Жанр: фантастика, боевик, триллер
    Год выпуска: 1999
    Продолжительность: 01:45:00
    Перевод: Профессиональный (дублированный) "Мосфильм"
    Cубтитры: нет
    Оригинальная аудиодорожка: нет-Режиссер:
    Ренни Харлин / Renny Harlin-В ролях:
    Томас Джейн (Carter Blake), Саффрон Берроуз (Dr. Susan McCallister), LL Кул Джей (Sherman 'Preacher' Dudley), Майкл Рапапорт (Tom 'Scoggs' Scoggins), Стеллан Скарсгард (Jim Whitlock), Сэмюэл Л. Джексон (Russell Franklin), Жаклин МакКензи (Janice Higgins), Аида Туртурро (Brenda Kerns), Кристос (Boat Captain), Дэниэл Рей (Helicopter Pilot), Валенте Родригес (Helicopter Co-Pilot), Брент Роам (Helicopter Winch Operator)-Описание:
    Ученые подводной лаборатории «Акватика», разрабатывая препарат от болезни Альцгеймера, находят способ генетического увеличения мозга подопытных акул.
    Агрессивные и злобные хищники превращаются в думающих монстров-убийц, способных перехитрить своих создателей. Герои фильма пытаются справиться с разъяренными хищниками. Но спастись от острых челюстей огромных и умных акул практически невозможно…-Рейтинг
    kinopoisk.ru: 7.110 (13 199)
    imdb.com: 5.70 (82 701)
    MPAA: - Детям до 17 лет обязательно присутствие родителей-Качество видео: SATRip
    Формат видео: AVI | → //SAMPLE//
    Видео: 640x480 (1.33:1), 25.000 fps, XviD build 65 ~1805 kbps avg, 0.235 bit/pixell
    Аудио: 48.0 kHz, MPEG Layer 2, 2 ch, ~256.00 kbps avg | DUB
    Размер: 1491.47 Mb (1/3 DVD-R)
    -

    MediaInfo

    Общее
    Полное имя : A:\Фильмы\Глубокое Синее Море.1999.SATRip.XviD.1.46Gb.mpeg2.avi
    Формат : AVI
    Формат/Информация : Audio Video Interleave
    Размер файла : 1,46 Гбайт
    Продолжительность : 1 ч. 40 м.
    Общий поток : 2071 Кбит/сек
    Программа кодирования : VirtualDubMod 1.5.10.3 | www.virtualdub-fr.org || (build 2550/release)
    Библиотека кодирования : VirtualDubMod build 2550/release
    Видео
    Идентификатор : 0
    Формат : MPEG-4 Visual
    Профиль формата : Advanced Simple@L5
    Параметр BVOP формата : 1
    Параметр QPel формата : Нет
    Параметр GMC формата : Без точки перехода
    Параметр матрицы формата : Выборочная
    Идентификатор кодека : XVID
    Идентификатор кодека/Подсказка : XviD
    Продолжительность : 1 ч. 40 м.
    Битрейт : 1805 Кбит/сек
    Ширина : 640 пикселей
    Высота : 480 пикселей
    Соотношение сторон : 1.33:1
    Частота кадров : 25,000 кадров/сек
    Цветовое пространство : YUV
    Субдискретизация насыщенности : 4:2:0
    Битовая глубина : 8 бит
    Тип развёртки : Прогрессивная
    Метод сжатия : С потерями
    Бит/(Пиксели*Кадры) : 0.235
    Размер потока : 1,27 Гбайт (87%)
    Библиотека кодирования : XviD 65
    Аудио
    Идентификатор : 1
    Формат : MPEG Audio
    Версия формата : Version 1
    Профиль формата : Layer 2
    Идентификатор кодека : 50
    Продолжительность : 1 ч. 40 м.
    Вид битрейта : Постоянный
    Битрейт : 256 Кбит/сек
    Каналы : 2 канала
    Частота : 48,0 КГц
    Метод сжатия : С потерями
    Размер потока : 184 Мбайт (12%)
    Выравнивание : Соединение по промежуткам
    Продолжительность промежутка : 40 мс. (1,00 видеокадр)
    Время предзагрузки промежутка : 504 мс.

    Скриншот c названием фильма

    Скриншоты

    Скачать .torrent

    Скачать торрент-файл бесплатно и на максимальной скорости!

    Как скачивать? · Что такое торрент? · Рейтинг и ограничения

    !ВНИМАНИЕ!
    Сайт не распространяет и не хранит электронные версии произведений, а занимается лишь лишь предоставлением доступа к создаваемому пользователями каталогу ссылок на торрент-файлы, которые содержат только списки хеш-сумм, убедительная просьба с жалобами обращаться напрямую к пользователю. Файлы для обмена на трекере предоставлены пользователями сайта, и администрация не несёт ответственности за их содержание. Просьба не заливать файлы, защищенные авторскими правами, а также файлы нелегального содержания!

    [Профиль] [ЛС]
    Показать сообщения:    
    Ответить на тему

    Текущее время: Сегодня, в 08:45

    Часовой пояс: GMT + 2



    Вы не можете начинать темы
    Вы не можете отвечать на сообщения
    Вы не можете редактировать свои сообщения
    Вы не можете удалять свои сообщения
    Вы не можете голосовать в опросах
    Вы не можете прикреплять файлы к сообщениям
    Вы не можете скачивать файлы