BitTorrentTracker PerecTracker.org
BitTorrentTracker PerecTracker.org
    
Регистрация  ·  Вход
 
 · 
Забыли пароль?

  • Убийца клана Инугами / Murder of the Inugami Clan / Inugami-ke no ichizoku (Кон Ичикава / Kon Ichikawa) [2006, Япония, драма, детектив, триллер, SATRip] MVO (Культура)

    Ответить на тему
     
    Автор Сообщение

    Columb

    Создавать темы 28-Июн-2014 12:18

           

    [Цитировать]

    Убийца клана Инугами / Murder of the Inugami Clan / Inugami-ke no ichizoku
    Страна: Япония
    Жанр: драма, детектив, триллер
    Год выпуска: 2006
    Продолжительность: 02:12:19
    Перевод: Профессиональный (многоголосый закадровый) т/к Культура
    Cубтитры: нет
    Оригинальная аудиодорожка: нет
    Режиссер: Кон Ичикава / Kon Ichikawa
    В ролях: Коджи Ишизака, Нанако Мацушима, Кикуносуке Оноэ, Сумико Фуджи, Кейко Мацузака, Хисако [цензура], Шинго Кацураяма, Мансаку Икеучи, Юкиджиро Хотару, Тошия Нагасава
    Описание: По мотивам повести Сэйси Ёкомидзо. У смертного одра Сахэя Инугами, основателя крупной фармацевтической компании, собирается вся семья, чтобы узнать его последнюю волю. Один из юристов компании, опасаясь возможных осложнений, тайно приглашает частного детектива Косуке Киндаити. После оглашения завещания, становится понятно, что битва за наследство будет жестокой. А вскоре начинается череда загадочных убийств...
    II Сэмпл II IMDB II
    Доп. информация:
    Запись с т/к Культура
    Качество видео: SATRip
    Формат видео: AVI
    Видео: Xvid 704x384 (16:9) 25.0fps Bit rate 1386Kbps b/p 0.205
    Аудио: AC3 48.0 KHz 2ch. 192kbps rus mvo

    MediaInfo

    Общее
    Полное имя : E:\torrent\Inugami-ke.no.ichizoku.SatRip.avi
    Формат : AVI
    Формат/Информация : Audio Video Interleave
    Размер файла : 1,47 Гбайт
    Продолжительность : 2 ч. 12 м.
    Общий поток : 1587 Кбит/сек
    Библиотека кодирования : VirtualDub build 32842/release
    Видео
    Идентификатор : 0
    Формат : MPEG-4 Visual
    Профиль формата : Advanced Simple@L5
    Параметр BVOP формата : 2
    Параметр QPel формата : Нет
    Параметр GMC формата : Без точки перехода
    Параметр матрицы формата : Default (H.263)
    Идентификатор кодека : XVID
    Идентификатор кодека/Подсказка : XviD
    Продолжительность : 2 ч. 12 м.
    Битрейт : 1386 Кбит/сек
    Ширина : 704 пикселя
    Высота : 384 пикселя
    Соотношение сторон : 1,85:1
    Частота кадров : 25,000 кадров/сек
    Цветовое пространство : YUV
    Субдискретизация насыщенности : 4:2:0
    Битовая глубина : 8 бит
    Тип развёртки : Прогрессивная
    Метод сжатия : С потерями
    Бит/(Пиксели*Кадры) : 0.205
    Размер потока : 1,28 Гбайт (87%)
    Библиотека кодирования : XviD 65
    Аудио
    Идентификатор : 1
    Формат : AC-3
    Формат/Информация : Audio Coding 3
    Расширение режима : CM (complete main)
    Параметр Endianness формата : Big
    Идентификатор кодека : 2000
    Продолжительность : 2 ч. 12 м.
    Вид битрейта : Постоянный
    Битрейт : 192 Кбит/сек
    Каналы : 2 канала
    Расположение каналов : Front: L R
    Частота : 48,0 КГц
    Битовая глубина : 16 бит
    Метод сжатия : С потерями
    Размер потока : 182 Мбайт (12%)
    Выравнивание : Соединение по промежуткам
    Продолжительность промежутка : 40 мс. (1,00 видеокадр)
    Время предзагрузки промежутка : 512 мс.

    Скриншот c названием фильма

    Скриншоты

    Скачать .torrent

    Скачать торрент-файл бесплатно и на максимальной скорости!

    Как скачивать? · Что такое торрент? · Рейтинг и ограничения

    !ВНИМАНИЕ!
    Сайт не распространяет и не хранит электронные версии произведений, а занимается лишь лишь предоставлением доступа к создаваемому пользователями каталогу ссылок на торрент-файлы, которые содержат только списки хеш-сумм, убедительная просьба с жалобами обращаться напрямую к пользователю. Файлы для обмена на трекере предоставлены пользователями сайта, и администрация не несёт ответственности за их содержание. Просьба не заливать файлы, защищенные авторскими правами, а также файлы нелегального содержания!

    [Профиль] [ЛС]
    Показать сообщения:    
    Ответить на тему

    Текущее время: Сегодня, в 03:28

    Часовой пояс: GMT + 2



    Вы не можете начинать темы
    Вы не можете отвечать на сообщения
    Вы не можете редактировать свои сообщения
    Вы не можете удалять свои сообщения
    Вы не можете голосовать в опросах
    Вы не можете прикреплять файлы к сообщениям
    Вы не можете скачивать файлы