BitTorrentTracker PerecTracker.org
BitTorrentTracker PerecTracker.org
    
Регистрация  ·  Вход
 
 · 
Забыли пароль?

  • Контрабанда / Contraband (Бальтасар Кормакур / Baltasar Kormakur) [2012 г., боевик, триллер, драма, криминал, BDRip-AVC] [Лицензия]

    Ответить на тему
     
    Автор Сообщение

    vlad

    Создавать темы 15-Апр-2012 11:30

           

    [Цитировать]

    Контрабанда / Contraband-Cлоган: «Большой куш. Крутая команда. Смертельный риск.»Год выпуска: 2012
    Страна: США, Франция, Великобритания
    Жанр: боевик, триллер, драма, криминал
    Продолжительность: 01:49:39
    Перевод: Профессиональный (полное дублирование) [Лицензия]
    Субтитры: английские
    Вид субтитров: Вшитые отключаемые
    Оригинальная аудио дорожка: английский--Режиссер: Бальтасар Кормакур / Baltasar Kormakur
    Продюссер: Тим Беван, Эрик Феллнер, Бальтасар Кормакур
    Сценарий: Аарон Гузиковский, Арнальдур Ингридасон, Оускар Йоунассон--Бюджет: $ 25 000 000
    Сборы в США: $ 66 528 000
    Премьера в Мире: 12 января 2012
    Сборы в Мире: + $ 24 876 546 = $ 91 404 546
    Премьера в РФ: 12 января 2012, , «UPI»
    Сборы в РФ: $ 1 889 971
    Релиз на DVD: 31 мая 2012, «Двадцатый Век Фокс СНГ»
    Pелиз на Blu Ray: 31 мая 2012, «Двадцатый Век Фокс СНГ»
    R - Лицам до 17 лет обязательно присутствие взрослого
    --В ролях: Марк Уолберг, Кейт Бекинсейл, Бен Фостер, Джованни Рибизи, Калеб Лэндри Джонс, Дж.К. Симмонс, Лаки Джонсон, Диего Луна, Роберт Уолберг, Джейсон Митчел--Описание: Мир контрабандистов — это большие ставки и огромный риск. Cтоит оступиться лишь раз, и тебя ждет смерть. В этом мире Крис был лучшим, его называли Гудини, но он вышел из игры, женился и начал новую жизнь. К несчастью, Энди, друг Криса, провалил одно дело. Теперь платить по счетам придется обоим. У них есть всего две недели на то, чтобы доставить из Панамы в США 15 миллионов фальшивых долларов, разделенных на 4 партии, каждая размером с Мини Купер. Не успеют — они знают правила…--Качество: BDRip-AVC [рип с BDRip 1080p HDChina]
    Видео: x264, 1024x432 (2.35:1), 23.976 fps, 2272 Kbps
    Аудио 1: AC3, 48 Khz, 6 ch, 448 kbps - Русский
    Аудио 2: AC3, 48 Khz, 6 ch, 448 kbps - Английский [отдельно]

    MediaInfo:

    Общее
    Уникальный идентификатор : 174933285189890399184145461143214350477 (0x839AECDB54B7064AA104D5DE2729E08D)
    Полное имя : D:\Contrabanda.2012.x264.BDRip\Contrabanda.2012.x264.BDRip.mkv
    Формат : Matroska
    Версия формата : Version 2
    Размер файла : 2,06 Гбайт
    Продолжительность : 1 ч. 49 м.
    Общий поток : 2695 Кбит/сек
    Название фильма : Releases by andr1525
    Дата кодирования : UTC 2012-04-14 19:47:41
    Программа кодирования : mkvmerge v5.5.0 ('Healer') built on Apr 6 2012 21:43:24
    Библиотека кодирования : libebml v1.2.3 + libmatroska v1.3.0
    Видео
    Идентификатор : 1
    Формат : AVC
    Формат/Информация : Advanced Video Codec
    Профиль формата : High@L4.1
    Параметр CABAC формата : Да
    Параметр ReFrames формата : 5 кадров
    Идентификатор кодека : V_MPEG4/ISO/AVC
    Продолжительность : 1 ч. 49 м.
    Битрейт : 2266 Кбит/сек
    Ширина : 1024 пикселя
    Высота : 432 пикселя
    Соотношение сторон : 2,40:1
    Частота кадров : 23,976 кадра/сек
    Цветовое пространство : YUV
    Субдискретизация насыщенности : 4:2:0
    Битовая глубина : 8 бит
    Тип развёртки : Прогрессивная
    Бит/(Пиксели*Кадры) : 0.214
    Размер потока : 1,68 Гбайт (81%)
    Заголовок : Контрабанда / Contraband 2012
    Библиотека кодирования : x264 core 65 r999kMod cc51047
    Настройки программы : cabac=1 / ref=5 / deblock=1:0:0 / analyse=0x3:0x133 / me=umh / subme=6 / psy_rd=1.0:0.0 / mixed_ref=1 / me_range=16 / chroma_me=1 / trellis=1 / 8x8dct=1 / cqm=0 / deadzone=21,11 / chroma_qp_offset=-2 / threads=4 / thread_queue=4 / nr=0 / decimate=1 / mbaff=0 / bframes=5 / b_pyramid=1 / b_adapt=1 / b_bias=0 / direct=1 / wpredb=1 / keyint=250 / keyint_min=25 / scenecut=40(pre) / rc=abr / bitrate=2266 / ratetol=1.0 / qcomp=0.60 / qpmin=10 / qpmax=51 / qpstep=4 / ip_ratio=1.40 / pb_ratio=1.30 / aq=1:1.00
    Язык : Russian
    Default : Да
    Forced : Да
    Аудио
    Идентификатор : 2
    Формат : AC-3
    Формат/Информация : Audio Coding 3
    Расширение режима : CM (complete main)
    Параметр Endianness формата : Big
    Идентификатор кодека : A_AC3
    Продолжительность : 1 ч. 49 м.
    Вид битрейта : Постоянный
    Битрейт : 448 Кбит/сек
    Каналы : 6 каналов
    Расположение каналов : Front: L C R, Side: L R, LFE
    Частота : 48,0 КГц
    Битовая глубина : 16 бит
    Метод сжатия : С потерями
    Размер потока : 351 Мбайт (17%)
    Заголовок : Дубляж
    Язык : Russian
    Default : Да
    Forced : Да
    Текст
    Идентификатор : 3
    Формат : UTF-8
    Идентификатор кодека : S_TEXT/UTF8
    Идентификатор кодека/Информация : UTF-8 Plain Text
    Заголовок : Английские
    Язык : English
    Default : Нет
    Forced : Нет


    Скриншоты


    FAQ по просмотру MKV/h.264 / AAC
    Скачать .torrent

    Скачать торрент-файл бесплатно и на максимальной скорости!

    Как скачивать? · Что такое торрент? · Рейтинг и ограничения

    !ВНИМАНИЕ!
    Сайт не распространяет и не хранит электронные версии произведений, а занимается лишь лишь предоставлением доступа к создаваемому пользователями каталогу ссылок на торрент-файлы, которые содержат только списки хеш-сумм, убедительная просьба с жалобами обращаться напрямую к пользователю. Файлы для обмена на трекере предоставлены пользователями сайта, и администрация не несёт ответственности за их содержание. Просьба не заливать файлы, защищенные авторскими правами, а также файлы нелегального содержания!


    _________________
    [Профиль] [ЛС]

    -746

    Создавать темы 06-Апр-2013 13:09 (спустя 11 месяцев 21 день)

           

    Топик был перенесен из форума Зарубежные Фильмы (Новинки) в форум Фильмы 2011-2012

    -sasha2006 

    _________________
    Как бы ты высоко не летал, не забывай, с кем ты ползал..
     
    Показать сообщения:    
    Ответить на тему

    Текущее время: Сегодня, в 14:48

    Часовой пояс: GMT + 2



    Вы не можете начинать темы
    Вы не можете отвечать на сообщения
    Вы не можете редактировать свои сообщения
    Вы не можете удалять свои сообщения
    Вы не можете голосовать в опросах
    Вы не можете прикреплять файлы к сообщениям
    Вы не можете скачивать файлы