BitTorrentTracker PerecTracker.org
BitTorrentTracker PerecTracker.org
    
Регистрация  ·  Вход
 
 · 
Забыли пароль?

  • К Чуду / To The Wonder (Терренс Малик / Terrence Malick) [2012, США, драма, мелодрама, HDRip] Dub

    Ответить на тему
     
    Автор Сообщение

    Columb

    Создавать темы 20-Июн-2014 10:44

           

    [Цитировать]

    К Чуду / To The Wonder
    Страна: США
    Жанр: драма, мелодрама
    Год выпуска: 2012
    Продолжительность: 01:52:34
    Перевод: Профессиональный (дублированный) студия "Пифагор"
    Cубтитры: нет
    Режиссер: Терренс Малик / Terrence Malick
    В ролях: Бен Аффлек, Ольга Куриленко, Рэйчел МакАдамс, Хавьер Бардем, Татьяна Чилин, Ромина Монделло, Тони О’Ганс, Чарльз Бэйкер, Маршалл Белл, Кэйси Уильямс
    Описание: В центре событий картины - Элизабет Чейз, которая вместе с мужем Полом и дочерью Маккензи занята ремонтом ее нового дома. Чтобы побыстрее закончить все работы, она нанимает рабочего, Хавьера, себе в помощь. Однако в душе у Элизабет вскоре зарождаются подозрения в отношении ее работника. Ей кажется, что у Хавьера есть какая-то своя собственная цель в отношении ее родных.
    Доп. информация:
    Сэмпл: http://multi-up.com/981340
    Качество видео: HDRip
    Формат видео: AVI
    Видео: XVID, 720x304 (2,35:1), 23,976 кадра/сек, 1281 Кбит/сек
    Аудио: AC-3, 48,0 КГц, 448 Кбит/сек (6 каналов)

    MediaInfo

    Формат : AVI
    Формат/Информация : Audio Video Interleave
    Размер файла : 1,37 Гбайт
    Продолжительность : 1 ч. 52 м.
    Общий поток : 1738 Кбит/сек
    Программа кодирования : VirtualDubMod 1.5.10.2 (build 2540/release)
    Библиотека кодирования : VirtualDubMod build 2540/release
    Видео
    Идентификатор : 0
    Формат : MPEG-4 Visual
    Профиль формата : Advanced Simple@L5
    Параметр BVOP формата : 2
    Параметр QPel формата : Нет
    Параметр GMC формата : Без точки перехода
    Параметр матрицы формата : Default (H.263)
    Идентификатор кодека : XVID
    Идентификатор кодека/Подсказка : XviD
    Продолжительность : 1 ч. 52 м.
    Битрейт : 1281 Кбит/сек
    Ширина : 720 пикселей
    Высота : 304 пикселя
    Соотношение сторон : 2,35:1
    Частота кадров : 23,976 кадра/сек
    Цветовое пространство : YUV
    Субдискретизация насыщенности : 4:2:0
    Битовая глубина : 8 бит
    Тип развёртки : Прогрессивная
    Метод сжатия : С потерями
    Бит/(Пиксели*Кадры) : 0.244
    Размер потока : 1,01 Гбайт (74%)
    Библиотека кодирования : XviD 1.2.1 (UTC 2008-12-04)
    Аудио
    Идентификатор : 1
    Формат : AC-3
    Формат/Информация : Audio Coding 3
    Расширение режима : CM (complete main)
    Параметр Endianness формата : Big
    Идентификатор кодека : 2000
    Продолжительность : 1 ч. 52 м.
    Вид битрейта : Постоянный
    Битрейт : 448 Кбит/сек
    Каналы : 6 каналов
    Расположение каналов : Front: L C R, Side: L R, LFE
    Частота : 48,0 КГц
    Битовая глубина : 16 бит
    Метод сжатия : С потерями
    Размер потока : 361 Мбайт (26%)
    Выравнивание : Разделение по промежуткам
    Продолжительность промежутка : 42 мс. (1,00 видеокадр)
    Время предзагрузки промежутка : 500 мс.

    Скриншоты

    Скачать .torrent

    Скачать торрент-файл бесплатно и на максимальной скорости!

    Как скачивать? · Что такое торрент? · Рейтинг и ограничения

    !ВНИМАНИЕ!
    Сайт не распространяет и не хранит электронные версии произведений, а занимается лишь лишь предоставлением доступа к создаваемому пользователями каталогу ссылок на торрент-файлы, которые содержат только списки хеш-сумм, убедительная просьба с жалобами обращаться напрямую к пользователю. Файлы для обмена на трекере предоставлены пользователями сайта, и администрация не несёт ответственности за их содержание. Просьба не заливать файлы, защищенные авторскими правами, а также файлы нелегального содержания!

    [Профиль] [ЛС]
    Показать сообщения:    
    Ответить на тему

    Текущее время: Сегодня, в 23:20

    Часовой пояс: GMT + 2



    Вы не можете начинать темы
    Вы не можете отвечать на сообщения
    Вы не можете редактировать свои сообщения
    Вы не можете удалять свои сообщения
    Вы не можете голосовать в опросах
    Вы не можете прикреплять файлы к сообщениям
    Вы не можете скачивать файлы