Register  ·  Log in
Forgot password?

  • Саботаж / Sabotage (Тибор Такач / Tibor Takacs) [1996, Канада, боевик, триллер, драма, DVDRip] DVO (R5)

    Reply to topic
    Author Message


    Post 15-Jun-2014 11:03



    Саботаж / Sabotage
    Страна: Канада
    Жанр: боевик, триллер, драма
    Год выпуска: 1996
    Продолжительность: 01:39:02
    Перевод: Профессиональный (двухголосый закадровый) R5
    Cубтитры: нет
    Оригинальная аудиодорожка: нет
    Режиссер: Тибор Такач / Tibor Takacs
    В ролях: Марк Дакаскос, Кэрри-Энн Мосс, Тони Тодд, Грэм Грин, Джон Невилл, Джеймс Пёрселл, Сара Розен Фруитман, Ричард Култер, Хайди фон Паллеске
    Описание: Бывший морской пехотинец Майк Бишоп (Марк Дакаскос) учавствует в провальной операции по спасению заложников. Получив 7 ранений от руки профессионального убийцы (Тони Тодд), Бишоп чудом остается жив... Несколько лет спустя семья, в которой Бишоп работает телохранителем, становится жертвой того же убийцы. Объединившись со спецагентом ФБР (Кэри Энн Мосс), Бишоп вступает в смертельную схватку с суперкиллером, и ничьей в этой борьбе быть не может...
    Качество видео: DVDRip
    Формат видео: AVI
    Видео: Xvid 688x512 25.00fps 1 713 Kbps
    Аудио: Dolby AC3 48000Hz 6ch 384kbps


    Format : AVI
    Format/Info : Audio Video Interleave
    File size : 1.46 GiB
    Duration : 1h 39mn
    Overall bit rate : 2 106 Kbps
    Writing application : VirtualDubModRus (build 2542/release)
    Writing library : VirtualDubMod build 2542/release
    ID : 0
    Format : MPEG-4 Visual
    Format profile : Advanced Simple@L5
    Format settings, BVOP : Yes
    Format settings, QPel : No
    Format settings, GMC : No warppoints
    Format settings, Matrix : Custom
    Codec ID : XVID
    Codec ID/Hint : XviD
    Duration : 1h 39mn
    Bit rate : 1 713 Kbps
    Width : 688 pixels
    Height : 512 pixels
    Display aspect ratio : 4:3
    Frame rate : 25.000 fps
    Resolution : 8 bits
    Colorimetry : 4:2:0
    Scan type : Progressive
    Bits/(Pixel*Frame) : 0.194
    Stream size : 1.18 GiB (81%)
    Writing library : XviD 73
    ID : 1
    Format : AC-3
    Format/Info : Audio Coding 3
    Codec ID : 2000
    Duration : 1h 38mn
    Bit rate mode : Constant
    Bit rate : 384 Kbps
    Channel(s) : 6 channels
    Channel positions : Front: L C R, Surround: L R, LFE
    Sampling rate : 48.0 KHz
    Stream size : 272 MiB (18%)
    Alignment : Split accross interleaves
    Interleave, duration : 40 ms (1.00 video frame)
    Interleave, preload duration : 500 ms

    Скриншот c названием фильма


    Download .torrent

    Download free and at maximum speed!

    How to Download? · What is a torrent? · Ratings and Limitations

    The site does not extend and does not store electronic(digital) versions of products, and only gives access to a reference catalogue created by users on torrent-files which contain only lists of the hash-sums, the earnest entreaty, with complaints(abuse) to access directly to the user. Files for an exchange on tracker are given by users of a site, and the administration does not bear the responsibility for their maintenance. The request to not fill in the files protected by copyrights, and also files of the illegal maintenance!

    [Profile] [PM]
    Display posts from previous:    
    Reply to topic

    The time now is: Today 23:05

    All times are GMT + 3 Hours

    You cannot post new topics in this forum
    You cannot reply to topics in this forum
    You cannot edit your posts in this forum
    You cannot delete your posts in this forum
    You cannot vote in polls in this forum
    You cannot attach files in this forum
    You cannot download files in this forum