BitTorrentTracker PerecTracker.org
BitTorrentTracker PerecTracker.org
    
Регистрация  ·  Вход
 
 · 
Забыли пароль?

  • Расчлененное тело / Части тела / Body Parts (Эрик Ред / Eric Red) [1991, США, ужасы, триллер, DVDRip] DVO (Норд-видео-фильм) + Original Eng

    Ответить на тему
     
    Автор Сообщение

    Columb

    Создавать темы 15-Июн-2014 10:02

           

    [Цитировать]

    Расчлененное тело / Части тела / Body Parts
    Страна: США
    Жанр: ужасы, триллер
    Год выпуска: 1991
    Продолжительность: 01:28:16
    Перевод: Профессиональный (двухголосый закадровый) Норд-видео-фильм
    Cубтитры: нет
    Оригинальная аудиодорожка: английский
    Режиссер: Эрик Ред / Eric Red
    В ролях: Джефф Фэйи, Пол Бен-Виктор, Ким Делани, Натаниель Моро, Сара Кэмпбелл, Линдси Дункан, Линдси Мерритью, Арлин Дункан, Аллан Прайс, Хэл Эйзен, Джеймс Кидни, Питер Мерник, Брэд Дуриф, Закес Мокае, Энди Хамфри, Линн Ремус, Питер МакНейл, Джин Динови, Ларри А. МакЛин, Джон Стоунхэм мл., Джин Макк, Джон Уолш, Барри С. Кеннетт, Эйприл Джонсон, Джей К. Ли
    Описание: Экранизация романа Буало-Нарсежака «Человек-шарада». Преступника, совершившего массу преступлений, приговаривают к казни на электрическом стуле. Женщина-ученый в порядке эксперимента расчленяет тело казненного и пересаживает части его тела различным людям. Герой-уголовный психиатр Билл, который остановился в росте своей карьеры. Он в растерянности, так как не может никого вылечить. Во время преподавания он задается вопросом: откуда приходит зло. Он понимает, что ответ на него может послужить ключом к возможному исцелению его пациентов. Но вот Билл попадает в автомобильную катастрофу и теряет руку. Женщина пересаживает ему руку убийцы, что подталкивает героя к ответу, откуда происходит зло. Рука начинает вести себя сама по себе. Билл встречает двух людей, которым также были пересажены части тела от того же убийцы. Одному пришили другую руку, а второму-обе ноги. Неожиданно кто-то убивает тех двух парней и «конфискует» у них пришитые части тела. Билл понимает, что следующим на очереди стоит он...
    Доп. информация: Благодарю Fikaloid за оцифровку звука. Cинхронизация звуковой дороги спасибо
    alex7691
    Сэмпл: http://multi-up.com/980259
    Качество видео: DVDRip
    Формат видео: AVI
    Видео: XviD build 50, 720x304 (2.35:1), 23.976 fps, 1935 kbps avg
    Аудио: Russian AC3 Dolby Digital, 48 kHz, 2/0 (L,R) ch, 192.00 kbps avg
    Аудио 2: English AC3 Dolby Digital, 48 kHz, 2/0 (L,R) ch, 192.00 kbps avg

    MediaInfo

    Complete name : F:\Звук.дороги аленавова\Body Parts_1991.DVO.DVDRip.avi
    Format : AVI
    Format/Info : Audio Video Interleave
    File size : 1.44 GiB
    Duration : 1h 28mn
    Overall bit rate : 2 334 Kbps
    Writing application : VirtualDubModRus 1.5.10.2 (build 2542/release)
    Writing library : VirtualDubMod build 2542/release
    Video
    ID : 0
    Format : MPEG-4 Visual
    Format profile : Advanced Simple@L5
    Format settings, BVOP : 1
    Format settings, QPel : No
    Format settings, GMC : No warppoints
    Format settings, Matrix : Custom
    Codec ID : XVID
    Codec ID/Hint : XviD
    Duration : 1h 28mn
    Bit rate : 1 936 Kbps
    Width : 720 pixels
    Height : 304 pixels
    Display aspect ratio : 2.35:1
    Frame rate : 23.976 fps
    Color space : YUV
    Chroma subsampling : 4:2:0
    Bit depth : 8 bits
    Scan type : Progressive
    Compression mode : Lossy
    Bits/(Pixel*Frame) : 0.369
    Stream size : 1.19 GiB (83%)
    Writing library : XviD 65
    Audio #1
    ID : 1
    Format : AC-3
    Format/Info : Audio Coding 3
    Mode extension : CM (complete main)
    Format settings, Endianness : Big
    Codec ID : 2000
    Duration : 1h 28mn
    Bit rate mode : Constant
    Bit rate : 192 Kbps
    Channel count : 2 channels
    Channel positions : Front: L R
    Sampling rate : 48.0 KHz
    Bit depth : 16 bits
    Compression mode : Lossy
    Stream size : 121 MiB (8%)
    Alignment : Split accross interleaves
    Interleave, duration : 42 ms (1.00 video frame)
    Interleave, preload duration : 500 ms
    Audio #2
    ID : 2
    Format : AC-3
    Format/Info : Audio Coding 3
    Format profile : Dolby Digital
    Mode extension : CM (complete main)
    Format settings, Endianness : Big
    Codec ID : 2000
    Duration : 1h 28mn
    Bit rate mode : Constant
    Bit rate : 192 Kbps
    Channel count : 2 channels
    Channel positions : Front: L R
    Sampling rate : 48.0 KHz
    Bit depth : 16 bits
    Compression mode : Lossy
    Stream size : 121 MiB (8%)
    Alignment : Split accross interleaves
    Interleave, duration : 42 ms (1.00 video frame)
    Interleave, preload duration : 500 ms

    Скриншоты

    Скачать .torrent

    Скачать торрент-файл бесплатно и на максимальной скорости!

    Как скачивать? · Что такое торрент? · Рейтинг и ограничения

    !ВНИМАНИЕ!
    Сайт не распространяет и не хранит электронные версии произведений, а занимается лишь лишь предоставлением доступа к создаваемому пользователями каталогу ссылок на торрент-файлы, которые содержат только списки хеш-сумм, убедительная просьба с жалобами обращаться напрямую к пользователю. Файлы для обмена на трекере предоставлены пользователями сайта, и администрация не несёт ответственности за их содержание. Просьба не заливать файлы, защищенные авторскими правами, а также файлы нелегального содержания!

    [Профиль] [ЛС]
    Показать сообщения:    
    Ответить на тему

    Текущее время: Сегодня, в 04:22

    Часовой пояс: GMT + 2



    Вы не можете начинать темы
    Вы не можете отвечать на сообщения
    Вы не можете редактировать свои сообщения
    Вы не можете удалять свои сообщения
    Вы не можете голосовать в опросах
    Вы не можете прикреплять файлы к сообщениям
    Вы не можете скачивать файлы