BitTorrentTracker PerecTracker.org
BitTorrentTracker PerecTracker.org
    
Регистрация  ·  Вход
 
 · 
Забыли пароль?

  • Там, где покоится зло / Там, где скрыта тайна / Where Sleeping Dogs Lie (Чарльз Финч / Charles Finch) [1991, США, триллер, DVDRip] AVO (Сергей Кузнецов)

    Ответить на тему
     
    Автор Сообщение

    Columb

    Создавать темы 15-Июн-2014 10:01

           

    [Цитировать]

    Там, где покоится зло / Там, где скрыта тайна / Where Sleeping Dogs Lie
    Страна: США
    Жанр: триллер
    Год выпуска: 1991
    Продолжительность: 01:27:17
    Перевод: Авторский (одноголосый закадровый) Сергей Кузнецов
    Cубтитры: нет
    Оригинальная аудиодорожка: нет
    Режиссер: Чарльз Финч / Charles Finch
    В ролях: Дилан МакДермотт, Шэрон Стоун, Том Сайзмор, Чарльз Финч, Рон Карабацос, Мэри Воронов
    Описание: Молодой писатель с трудом сводит концы с концами и вынужден зарабатывать на жизнь, продавая недвижимость. Одним из его заданий становится продать дом, где, как он выясняет, произошло убийство. Переехав туда, он начинает писать роман «Дневник убийцы», который неожиданно становится зловещей автобиографией.
    Примечание: на 37-й минуте присутствует небольшая вставка в двухголосом переводе.
    Сэмпл: http://sendfile.su/990570
    Качество видео: DVDRip
    Формат видео: AVI
    Видео: 720x544, 25.000 fps, MPEG-4 Visual, 2041 Kbps, XviD 73
    Аудио: 48 KHz, AC3, 2 ch, 192 Kbps

    MediaInfo

    General
    Complete name : C:\Users\Сергей\Downloads\Там, где покоится зло.avi
    Format : AVI
    Format/Info : Audio Video Interleave
    File size : 1.37 GiB
    Duration : 1h 27mn
    Overall bit rate : 2 242 Kbps
    Director : ale_x2008
    Genre : Thriller
    Writing application : VirtualDubMod 1.5.10.3 (build 2550/release)
    Writing library : VirtualDubMod build 2550/release
    Original source form/Name : Movie
    Comment : 05.06.2014
    Video
    ID : 0
    Format : MPEG-4 Visual
    Format profile : Advanced Simple@L5
    Format settings, BVOP : 1
    Format settings, QPel : No
    Format settings, GMC : No warppoints
    Format settings, Matrix : Default (MPEG)
    Codec ID : XVID
    Codec ID/Hint : XviD
    Duration : 1h 27mn
    Bit rate : 2 041 Kbps
    Width : 720 pixels
    Height : 544 pixels
    Display aspect ratio : 4:3
    Frame rate : 25.000 fps
    Color space : YUV
    Chroma subsampling : 4:2:0
    Bit depth : 8 bits
    Scan type : Progressive
    Compression mode : Lossy
    Bits/(Pixel*Frame) : 0.208
    Stream size : 1.24 GiB (91%)
    Writing library : XviD 73
    Audio
    ID : 1
    Format : AC-3
    Format/Info : Audio Coding 3
    Mode extension : CM (complete main)
    Format settings, Endianness : Big
    Codec ID : 2000
    Duration : 1h 27mn
    Bit rate mode : Constant
    Bit rate : 192 Kbps
    Channel(s) : 2 channels
    Channel positions : Front: L R
    Sampling rate : 48.0 KHz
    Bit depth : 16 bits
    Compression mode : Lossy
    Stream size : 120 MiB (9%)
    Alignment : Split accross interleaves
    Interleave, duration : 40 ms (1.00 video frame)
    Interleave, preload duration : 500 ms

    Скриншоты

    Скачать .torrent

    Скачать торрент-файл бесплатно и на максимальной скорости!

    Как скачивать? · Что такое торрент? · Рейтинг и ограничения

    !ВНИМАНИЕ!
    Сайт не распространяет и не хранит электронные версии произведений, а занимается лишь лишь предоставлением доступа к создаваемому пользователями каталогу ссылок на торрент-файлы, которые содержат только списки хеш-сумм, убедительная просьба с жалобами обращаться напрямую к пользователю. Файлы для обмена на трекере предоставлены пользователями сайта, и администрация не несёт ответственности за их содержание. Просьба не заливать файлы, защищенные авторскими правами, а также файлы нелегального содержания!

    [Профиль] [ЛС]
    Показать сообщения:    
    Ответить на тему

    Текущее время: Сегодня, в 11:39

    Часовой пояс: GMT + 2



    Вы не можете начинать темы
    Вы не можете отвечать на сообщения
    Вы не можете редактировать свои сообщения
    Вы не можете удалять свои сообщения
    Вы не можете голосовать в опросах
    Вы не можете прикреплять файлы к сообщениям
    Вы не можете скачивать файлы