Register  ·  Log in
Forgot password?

  • Там, где покоится зло / Там, где скрыта тайна / Where Sleeping Dogs Lie (Чарльз Финч / Charles Finch) [1991, США, триллер, DVDRip] AVO (Сергей Кузнецов)

    Reply to topic
    Author Message


    Post 15-Jun-2014 11:01



    Там, где покоится зло / Там, где скрыта тайна / Where Sleeping Dogs Lie
    Страна: США
    Жанр: триллер
    Год выпуска: 1991
    Продолжительность: 01:27:17
    Перевод: Авторский (одноголосый закадровый) Сергей Кузнецов
    Cубтитры: нет
    Оригинальная аудиодорожка: нет
    Режиссер: Чарльз Финч / Charles Finch
    В ролях: Дилан МакДермотт, Шэрон Стоун, Том Сайзмор, Чарльз Финч, Рон Карабацос, Мэри Воронов
    Описание: Молодой писатель с трудом сводит концы с концами и вынужден зарабатывать на жизнь, продавая недвижимость. Одним из его заданий становится продать дом, где, как он выясняет, произошло убийство. Переехав туда, он начинает писать роман «Дневник убийцы», который неожиданно становится зловещей автобиографией.
    Примечание: на 37-й минуте присутствует небольшая вставка в двухголосом переводе.
    Качество видео: DVDRip
    Формат видео: AVI
    Видео: 720x544, 25.000 fps, MPEG-4 Visual, 2041 Kbps, XviD 73
    Аудио: 48 KHz, AC3, 2 ch, 192 Kbps


    Complete name : C:\Users\Сергей\Downloads\Там, где покоится зло.avi
    Format : AVI
    Format/Info : Audio Video Interleave
    File size : 1.37 GiB
    Duration : 1h 27mn
    Overall bit rate : 2 242 Kbps
    Director : ale_x2008
    Genre : Thriller
    Writing application : VirtualDubMod (build 2550/release)
    Writing library : VirtualDubMod build 2550/release
    Original source form/Name : Movie
    Comment : 05.06.2014
    ID : 0
    Format : MPEG-4 Visual
    Format profile : Advanced Simple@L5
    Format settings, BVOP : 1
    Format settings, QPel : No
    Format settings, GMC : No warppoints
    Format settings, Matrix : Default (MPEG)
    Codec ID : XVID
    Codec ID/Hint : XviD
    Duration : 1h 27mn
    Bit rate : 2 041 Kbps
    Width : 720 pixels
    Height : 544 pixels
    Display aspect ratio : 4:3
    Frame rate : 25.000 fps
    Color space : YUV
    Chroma subsampling : 4:2:0
    Bit depth : 8 bits
    Scan type : Progressive
    Compression mode : Lossy
    Bits/(Pixel*Frame) : 0.208
    Stream size : 1.24 GiB (91%)
    Writing library : XviD 73
    ID : 1
    Format : AC-3
    Format/Info : Audio Coding 3
    Mode extension : CM (complete main)
    Format settings, Endianness : Big
    Codec ID : 2000
    Duration : 1h 27mn
    Bit rate mode : Constant
    Bit rate : 192 Kbps
    Channel(s) : 2 channels
    Channel positions : Front: L R
    Sampling rate : 48.0 KHz
    Bit depth : 16 bits
    Compression mode : Lossy
    Stream size : 120 MiB (9%)
    Alignment : Split accross interleaves
    Interleave, duration : 40 ms (1.00 video frame)
    Interleave, preload duration : 500 ms


    Download .torrent

    Download free and at maximum speed!

    How to Download? · What is a torrent? · Ratings and Limitations

    The site does not extend and does not store electronic(digital) versions of products, and only gives access to a reference catalogue created by users on torrent-files which contain only lists of the hash-sums, the earnest entreaty, with complaints(abuse) to access directly to the user. Files for an exchange on tracker are given by users of a site, and the administration does not bear the responsibility for their maintenance. The request to not fill in the files protected by copyrights, and also files of the illegal maintenance!

    [Profile] [PM]
    Display posts from previous:    
    Reply to topic

    The time now is: Today 14:23

    All times are GMT + 3 Hours

    You cannot post new topics in this forum
    You cannot reply to topics in this forum
    You cannot edit your posts in this forum
    You cannot delete your posts in this forum
    You cannot vote in polls in this forum
    You cannot attach files in this forum
    You cannot download files in this forum