BitTorrentTracker PerecTracker.org
BitTorrentTracker PerecTracker.org
    
Регистрация  ·  Вход
 
 · 
Забыли пароль?

  • Смерти вопреки / Hard to Kill (Брюс Мэлмат / Bruce Malmuth) [1990, США, боевик, триллер, драма, криминал, BDRip] Dub (Мост-Видео)

    Ответить на тему
     
    Автор Сообщение

    Columb

    Создавать темы 15-Июн-2014 09:58

           

    [Цитировать]

    Смерти вопреки / Hard to Kill
    Страна: США
    Жанр: боевик, триллер, драма, криминал
    Год выпуска: 1990
    Продолжительность: 01:35:38
    Перевод: Профессиональный (дублированный) (Мост-Видео)
    Cубтитры: нет
    Режиссер: Брюс Мэлмат / Bruce Malmuth
    В ролях: Стивен Сигал, Келли ЛеБрок, Уильям Сэдлер, Фредерик Коффин, Бонни Барроуз, Эндрю Блок, Брэнском Ричмонд, Чарльз Босуэлл, Зэкари Розенкранц, Лу Битти мл
    Описание: Коррумпированный калифорнийский политик и его наемники подстрелили лос-анджелесского детектива Мейсона Сторма. Они считали его мертвым. Но эта ошибка им дорого обойдется. Сторм живет смерти вопреки. Семь лет Сторм провел в тайном укрытии, где его выводили из коматозного состояния. Он очнулся с единственной целью ― мстить. С помощью преданной сиделки он готовится к схватке.Он совершенствуется в стрельбе, отрабатывает свои навыки боевых искусств и пользуется восточной медициной, чтобы вернуть себе силы. Его мастерство развернется в полную силу.

    Автор: Thomas Ian Griffith
    Качество видео: BDRip (Исходник: kingsize87 / Blu-ray disc (custom) / 1080p)
    Формат видео: AVI
    Видео: 688x384 (1.79:1), 23.976 fps, XviD build 73 ~951 kbps avg, 0.15 bit/pixel
    Аудио: 48 kHz, MPEG Layer 3, 2 ch, ~128.00 kbps avg

    MediaInfo

    Общее
    Полное имя : C:\Users\ЯРОСЛАВ\Desktop\фильмы\Smerti.vopreki.1990.BDRip-745.avi
    Формат : AVI
    Формат/Информация : Audio Video Interleave
    Размер файла : 745 Мбайт
    Продолжительность : 1 ч. 35 м.
    Общий поток : 1089 Кбит/сек
    Программа кодирования : VirtualDubModRus 1.5.10.2 (build 2542/release)
    Библиотека кодирования : VirtualDubMod build 2542/release
    Видео
    Идентификатор : 0
    Формат : MPEG-4 Visual
    Профиль формата : Advanced Simple@L5
    Параметр BVOP формата : 1
    Параметр QPel формата : Нет
    Параметр GMC формата : Без точки перехода
    Параметр матрицы формата : Выборочная
    Идентификатор кодека : XVID
    Идентификатор кодека/Подсказка : XviD
    Продолжительность : 1 ч. 35 м.
    Битрейт : 952 Кбит/сек
    Ширина : 688 пикселей
    Высота : 384 пикселя
    Соотношение сторон : 16:9
    Частота кадров : 23,976 кадра/сек
    Цветовое пространство : YUV
    Субдискретизация насыщенности : 4:2:0
    Битовая глубина : 8 бит
    Тип развёртки : Прогрессивная
    Метод сжатия : С потерями
    Бит/(Пиксели*Кадры) : 0.150
    Размер потока : 651 Мбайт (87%)
    Библиотека кодирования : XviD 73
    Аудио
    Идентификатор : 1
    Формат : MPEG Audio
    Версия формата : Version 1
    Профиль формата : Layer 3
    Идентификатор кодека : 55
    Идентификатор кодека/Подсказка : MP3
    Продолжительность : 1 ч. 35 м.
    Вид битрейта : Постоянный
    Битрейт : 128 Кбит/сек
    Каналы : 2 канала
    Частота : 48,0 КГц
    Метод сжатия : С потерями
    Размер потока : 87,6 Мбайт (12%)
    Выравнивание : Соединение по промежуткам
    Продолжительность промежутка : 42 мс. (1,00 видеокадр)
    Время предзагрузки промежутка : 504 мс.
    Библиотека кодирования : LAME3.99r
    Настройки программы : -m s -V 4 -q 2 -lowpass 17 -b 128

    Скриншоты


    Скачать .torrent

    Скачать торрент-файл бесплатно и на максимальной скорости!

    Как скачивать? · Что такое торрент? · Рейтинг и ограничения

    !ВНИМАНИЕ!
    Сайт не распространяет и не хранит электронные версии произведений, а занимается лишь лишь предоставлением доступа к создаваемому пользователями каталогу ссылок на торрент-файлы, которые содержат только списки хеш-сумм, убедительная просьба с жалобами обращаться напрямую к пользователю. Файлы для обмена на трекере предоставлены пользователями сайта, и администрация не несёт ответственности за их содержание. Просьба не заливать файлы, защищенные авторскими правами, а также файлы нелегального содержания!

    [Профиль] [ЛС]
    Показать сообщения:    
    Ответить на тему

    Текущее время: Сегодня, в 08:28

    Часовой пояс: GMT + 2



    Вы не можете начинать темы
    Вы не можете отвечать на сообщения
    Вы не можете редактировать свои сообщения
    Вы не можете удалять свои сообщения
    Вы не можете голосовать в опросах
    Вы не можете прикреплять файлы к сообщениям
    Вы не можете скачивать файлы