BitTorrentTracker PerecTracker.org
BitTorrentTracker PerecTracker.org
    
Регистрация  ·  Вход
 
 · 
Забыли пароль?

  • Самоволка / Lionheart (Шелдон Леттич / Sheldon Lettich) [1990, США, боевик, WEB-DLRip] DVO (Twister) + sub (rus, forced)

    Ответить на тему
     
    Автор Сообщение

    Columb

    Создавать темы 15-Июн-2014 09:56

           

    [Цитировать]

    Самоволка / Lionheart-Страна: США
    Жанр: боевик
    Год выпуска: 1990
    Продолжительность: 01:45:02-Перевод: Профессиональный (двухголосый, закадровый) Twister
    Субтитры: Русские, форсированные (на места без перевода)-Режиссер: Шелдон Леттич / Sheldon Lettich-В ролях: Жан-Клод Ван Дамм, Харрисон Пейдж, Дебора Реннард, Лиза Пеликан, Эшли Джонсон, Брайан Томпсон, Войо Горич, Мишель Кисси, Джордж МакДэниэл, Эрик Карсон-Описание: Узнав, что его брат в Лос-Анджелесе серьезно ранен, Лайон Голтье дезертирует из французского иностранного легиона, базирующегося в отдаленном районе Северной Африки. Скрываясь от двух боевиков-легионеров, которым дан приказ вернуть его любой ценой, Лайон против своего желания становится участником незаконных боев современных гладиаторов, дерущихся голыми кулаками для развлечения богатых. Ему нужны деньги, чтобы помочь семье своего брата...-Сэмпл: http://multi-up.com/980202-Качество видео: WEB-DLRip
    Формат видео: AVI
    Видео: 688x368 (1.87:1), 23.976 fps, XviD build 50 ~1771 kbps avg, 0.29 bit/pixel
    Аудио: 48.0 KHz, AC3, 2 channels (L, R) ~ 192 kbps-

    Благодарности

    За видео благодарим Scarabey, за дорожку Twister и субтитры - Dreven

    MediaInfo

    General
    Complete name : D:\Самоволка (Twister).avi
    Format : AVI
    Format/Info : Audio Video Interleave
    File size : 1.45 GiB
    Duration : 1h 45mn
    Overall bit rate : 1 973 Kbps
    Writing application : VirtualDubMod 1.5.10.2 (build 2540/release)
    Writing library : VirtualDubMod build 2540/release
    Video
    ID : 0
    Format : MPEG-4 Visual
    Format profile : Advanced Simple@L5
    Format settings, BVOP : 1
    Format settings, QPel : No
    Format settings, GMC : No warppoints
    Format settings, Matrix : Custom
    Codec ID : XVID
    Codec ID/Hint : XviD
    Duration : 1h 45mn
    Bit rate : 1 772 Kbps
    Width : 688 pixels
    Height : 368 pixels
    Display aspect ratio : 1.870
    Frame rate : 23.976 fps
    Color space : YUV
    Chroma subsampling : 4:2:0
    Bit depth : 8 bits
    Scan type : Progressive
    Compression mode : Lossy
    Bits/(Pixel*Frame) : 0.292
    Stream size : 1.30 GiB (90%)
    Writing library : XviD 1.2.1 (UTC 2008-12-04)
    Audio
    ID : 1
    Format : AC-3
    Format/Info : Audio Coding 3
    Mode extension : CM (complete main)
    Codec ID : 2000
    Duration : 1h 45mn
    Bit rate mode : Constant
    Bit rate : 192 Kbps
    Channel(s) : 2 channels
    Channel positions : Front: L R
    Sampling rate : 48.0 KHz
    Bit depth : 16 bits
    Compression mode : Lossy
    Stream size : 144 MiB (10%)
    Alignment : Split accross interleaves
    Interleave, duration : 42 ms (1.00 video frame)
    Interleave, preload duration : 500 ms

    Скриншоты

    Скачать .torrent

    Скачать торрент-файл бесплатно и на максимальной скорости!

    Как скачивать? · Что такое торрент? · Рейтинг и ограничения

    !ВНИМАНИЕ!
    Сайт не распространяет и не хранит электронные версии произведений, а занимается лишь лишь предоставлением доступа к создаваемому пользователями каталогу ссылок на торрент-файлы, которые содержат только списки хеш-сумм, убедительная просьба с жалобами обращаться напрямую к пользователю. Файлы для обмена на трекере предоставлены пользователями сайта, и администрация не несёт ответственности за их содержание. Просьба не заливать файлы, защищенные авторскими правами, а также файлы нелегального содержания!

    [Профиль] [ЛС]
    Показать сообщения:    
    Ответить на тему

    Текущее время: Сегодня, в 18:07

    Часовой пояс: GMT + 2



    Вы не можете начинать темы
    Вы не можете отвечать на сообщения
    Вы не можете редактировать свои сообщения
    Вы не можете удалять свои сообщения
    Вы не можете голосовать в опросах
    Вы не можете прикреплять файлы к сообщениям
    Вы не можете скачивать файлы