BitTorrentTracker PerecTracker.org
BitTorrentTracker PerecTracker.org
    
Регистрация  ·  Вход
 
 · 
Забыли пароль?

  • Идеальный учитель / Учитель Идеал / Kantor ideal (Мартин Фрич / Martin Fric) [1933, Чехословакия, комедия, DVDRip] Sub (RUS)

    Ответить на тему
     
    Автор Сообщение

    Columb

    Создавать темы 15-Июн-2014 09:53

           

    [Цитировать]

    Идеальный учитель / Учитель Идеал / Kantor ideal
    Страна: Чехословакия
    Жанр: комедия
    Год выпуска: 1933
    Продолжительность: 01:30:09
    Перевод: русские субтитры - river11
    Оригинальная аудиодорожка: чешская
    Режиссер: Мартин Фрич / Martin Fric (в титрах - Mac Fric)
    В ролях:
    Карел Ламач / Karel Lamač ... Karel Suchý, professor
    Анни Ондра / Anny Ondra (в титрах: Anny Ondráková) ... Vera Matysová
    Оскар Марион / Oscar Marion (в титрах: Oskar Marion) ... Rudolf Junek
    Теодор Пиштек / Theodor Pistek ... Director school
    Светла Свозилова / Svetla Svozilová ... Dr. Plásilová
    Антония Недошинска / Antonie Nedosinská ... Aunte
    Валентин Шиндлер / Valentin Sindler ... Jecmínek, Janitor
    Ченек Шлегль / Cenek Slégl ... Karel Domin
    Ярослав Марван / Jaroslav Marvan ... Suchého spoluzák
    Ладислав Хеммер / Ladislav Hemmer ... Friend
    Альфред Шлезингер / Alfred Schlesinger ... Professor
    Ян В. Спиргер / Jan W. Speerger ... Professor
    Франтишек Ржиха / Frantisek Ríha ... Professor
    Фердинанд Ярковски / Ferdinand Jarkovský ... Professor
    Дарья Гайска / Darja Hajská ... Girl with braid
    Милка Балек-Бродска / Milka Balek-Brodská ... Neigbour
    Бетти Кусилкова / Betty Kysilková ... Madame in the train
    Наташа Голлова / Natasa Gollová ... Student

    Описание: В женской гимназии появляется новый профессор, застенчивый и старомодный Карел Сухий. С самого начала он становится объектом шуток своих учениц. Особенно часто он подвергается насмешкам со стороны очаровательной и легкомысленной Веры Матысовой - племянницы хозяйки дома, в котором он снимает квартиру. Однажды Вера спорит с другими ученицами, что поцелуется с новым учителем...
    Сэмпл: http://multi-up.com/980358
    Качество видео: DVDRip
    Формат видео: AVI
    Видео: 512x384 (1.33:1), 25 fps, XviD build 73 ~961 kbps avg, 0.20 bit/pixel
    Аудио: 48 kHz, MPEG Layer 3, 2 ch, ~112.00 kbps avg
    Формат субтитров: softsub (SRT)

    MediaInfo

    General
    Complete name : ... \Kantor Ideal 1932 700MB\Kantor Ideal 1932.avi
    Format : AVI
    Format/Info : Audio Video Interleave
    File size : 699 MiB
    Duration : 1h 30mn
    Overall bit rate : 1 084 Kbps
    Writing application : VirtualDubMod 1.5.10.3 | www.virtualdub-fr.org || (build 2550/release)
    Writing library : VirtualDubMod build 2550/release
    Video
    ID : 0
    Format : MPEG-4 Visual
    Format profile : Advanced Simple@L5
    Format settings, BVOP : 2
    Format settings, QPel : No
    Format settings, GMC : No warppoints
    Format settings, Matrix : Default (H.263)
    Codec ID : DX50
    Codec ID/Hint : DivX 5
    Duration : 1h 30mn
    Bit rate : 962 Kbps
    Width : 512 pixels
    Height : 384 pixels
    Display aspect ratio : 4:3
    Frame rate : 25.000 fps
    Color space : YUV
    Chroma subsampling : 4:2:0
    Bit depth : 8 bits
    Scan type : Progressive
    Compression mode : Lossy
    Bits/(Pixel*Frame) : 0.196
    Stream size : 620 MiB (89%)
    Writing library : XviD 73
    Audio
    ID : 1
    Format : MPEG Audio
    Format version : Version 1
    Format profile : Layer 3
    Codec ID : 55
    Codec ID/Hint : MP3
    Duration : 1h 30mn
    Bit rate mode : Constant
    Bit rate : 112 Kbps
    Channel(s) : 2 channels
    Sampling rate : 48.0 KHz
    Compression mode : Lossy
    Stream size : 72.2 MiB (10%)
    Alignment : Aligned on interleaves
    Interleave, duration : 40 ms (1.00 video frame)
    Interleave, preload duration : 504 ms
    Writing library : LAME3.99r
    Encoding settings : -m s -V 4 -q 0 -lowpass 15.6 -b 112

    Скриншоты

    Фрагмент субтитров

    ...
    590
    01:26:45,320 --> 01:26:51,640
    Наполеон, точно стал...
    Наполеон встал...
    591
    01:26:52,320 --> 01:26:56,560
    Наполеон встал, а вы сядете.
    Ставлю двойку.
    592
    01:27:04,400 --> 01:27:13,040
    Прошение Веры Матысовой
    о стипендии рассмотрено.
    593
    01:27:14,360 --> 01:27:26,840
    Однако, получение стипедии напрямую
    зависит от успеваемости учащихся.
    594
    01:27:36,720 --> 01:27:37,920
    М-да.
    595
    01:28:18,960 --> 01:28:25,120
    - Что вы хотели, Вера?
    - Пан профессор, эта двойка...
    596
    01:28:25,160 --> 01:28:30,640
    ...снизит мою успеваемость.
    И я не получу стипендию.
    597
    01:28:31,840 --> 01:28:34,920
    Говорил о вас
    с паном директором.
    598
    01:28:34,960 --> 01:28:43,040
    - Вы будете исключены из гимназии.
    - Я, что, буду исключена?
    599
    01:28:44,880 --> 01:28:50,640
    - Почему?
    - Потому, что выходите замуж.
    600
    01:28:52,360 --> 01:28:57,040
    Я не хочу замуж!
    Я не хочу!
    ...
    Скачать .torrent

    Скачать торрент-файл бесплатно и на максимальной скорости!

    Как скачивать? · Что такое торрент? · Рейтинг и ограничения

    !ВНИМАНИЕ!
    Сайт не распространяет и не хранит электронные версии произведений, а занимается лишь лишь предоставлением доступа к создаваемому пользователями каталогу ссылок на торрент-файлы, которые содержат только списки хеш-сумм, убедительная просьба с жалобами обращаться напрямую к пользователю. Файлы для обмена на трекере предоставлены пользователями сайта, и администрация не несёт ответственности за их содержание. Просьба не заливать файлы, защищенные авторскими правами, а также файлы нелегального содержания!

    [Профиль] [ЛС]
    Показать сообщения:    
    Ответить на тему

    Текущее время: Сегодня, в 20:28

    Часовой пояс: GMT + 2



    Вы не можете начинать темы
    Вы не можете отвечать на сообщения
    Вы не можете редактировать свои сообщения
    Вы не можете удалять свои сообщения
    Вы не можете голосовать в опросах
    Вы не можете прикреплять файлы к сообщениям
    Вы не можете скачивать файлы