BitTorrentTracker PerecTracker.org
BitTorrentTracker PerecTracker.org
    
Регистрация  ·  Вход
 
 · 
Забыли пароль?

  • Призрак с улицы Гуднайт Лейн / Ghost of Goodnight Lane (Али Биджан / Ali Bijan) [2014, США, ужасы, комедия, WEB-DLRip] DVO ([DeadSno & den904]) + Sub Eng

    Ответить на тему
     
    Автор Сообщение

    Columb

    Создавать темы 15-Июн-2014 09:39

           

    [Цитировать]

    Призрак с улицы Гуднайт Лейн / Ghost of Goodnight Lane
    Страна: США
    Жанр: ужасы, комедия
    Год выпуска: 2014
    Продолжительность: 01:37:30-Перевод: Любительский (двухголосый закадровый) [DeadSno & den904]-Cубтитры: английские
    Режиссер: Али Биджан / Ali Bijan-В ролях: Лейси Чаберт,Билли Зейн,Даниэль Харрис,Мэтт Даллас,Ричард Тайсон,Брина Паленсиа,Дженнифер Кобрин,Кристин Куинн,Мелисса Кордеро,Эрин Мари Гаррет.-Описание: Когда однажды утром сотрудники отремонтированной киностудии находят труп своего коллеги, складываются кусочки головоломки сорокалетней давности о злом призраке человека, некогда жившего в этих местах.-Доп. информация: перевод на русский язык [МЕГАПЫХАРЬ & ОХ! Студия]
    работа со звуком Гуннлауг]- | -Сэмпл: https://yadi.sk/d/Ix6ab8geTMKEj-Качество видео: WEB-DLRip
    Формат видео: MKV-Видео: MPEG4 Video (H264) 1280x544 23.976fps [V: Release Group СПАМ [eng] (h264 high L4.1, yuv420p, 1280x544) [default]]
    Аудио: Dolby AC3 48000Hz stereo 192kbps [A: Влад и Снежиночка [rus] (ac3, 48000 Hz, stereo, 192 kb/s) [default,forced]]
    Аудио 2: Dolby AC3 48000Hz 6ch 384kbps [A: English [eng] (ac3, 48000 Hz, 5.1, 384 kb/s)]

    MediaInfo

    Format : Matroska
    Format version : Version 4 / Version 2
    File size : 2.46 GiB
    Duration : 1h 37mn
    Overall bit rate mode : Variable
    Overall bit rate : 3 607 Kbps
    Movie name : Release Group СПАМ
    Encoded date : UTC 2014-06-14 08:04:31
    Writing application : mkvmerge v7.0.0 ('Where We Going') 64bit built on Jun 9 2014 15:16:27
    Writing library : libebml v1.3.0 libmatroska v1.4.1
    Video
    ID : 1
    Format : AVC
    Format/Info : Advanced Video Codec
    Format profile : High@L4.1
    Format settings, CABAC : Yes
    Format settings, ReFrames : 3 frames
    Codec ID : V_MPEG4/ISO/AVC
    Duration : 1h 37mn
    Bit rate mode : Variable
    Bit rate : 2 959 Kbps
    Maximum bit rate : 40.0 Mbps
    Width : 1 280 pixels
    Height : 544 pixels
    Display aspect ratio : 2.35:1
    Frame rate mode : Constant
    Frame rate : 23.976 fps
    Color space : YUV
    Chroma subsampling : 4:2:0
    Bit depth : 8 bits
    Scan type : Progressive
    Bits/(Pixel*Frame) : 0.177
    Stream size : 2.02 GiB (82%)
    Title : Release Group СПАМ
    Writing library : x264 core 138 r2358 9e941d1
    Encoding settings : cabac=1 / ref=4 / deblock=1:0:0 / analyse=0x3:0x113 / me=hex / subme=7 / psy=1 / psy_rd=1.00:0.15 / mixed_ref=1 / me_range=16 / chroma_me=1 / trellis=1 / 8x8dct=1 / cqm=0 / deadzone=21,11 / fast_pskip=1 / chroma_qp_offset=-3 / threads=18 / lookahead_threads=3 / sliced_threads=0 / slices=4 / nr=0 / decimate=1 / interlaced=0 / bluray_compat=0 / constrained_intra=0 / bframes=3 / b_pyramid=1 / b_adapt=1 / b_bias=0 / direct=1 / weightb=1 / open_gop=0 / weightp=2 / keyint=23 / keyint_min=1 / scenecut=40 / intra_refresh=0 / rc_lookahead=23 / rc=crf / mbtree=1 / crf=17.5 / qcomp=0.60 / qpmin=10 / qpmax=51 / qpstep=4 / vbv_maxrate=40000 / vbv_bufsize=30000 / crf_max=0.0 / nal_hrd=vbr / ip_ratio=1.40 / aq=1:1.00
    Language : English
    Default : Yes
    Forced : No
    Color primaries : BT.709
    Transfer characteristics : BT.709
    Matrix coefficients : BT.709
    Audio #1
    ID : 2
    Format : AC-3
    Format/Info : Audio Coding 3
    Mode extension : CM (complete main)
    Format settings, Endianness : Big
    Codec ID : A_AC3
    Duration : 1h 37mn
    Bit rate mode : Constant
    Bit rate : 192 Kbps
    Channel(s) : 2 channels
    Channel positions : Front: L R
    Sampling rate : 48.0 KHz
    Bit depth : 16 bits
    Compression mode : Lossy
    Stream size : 134 MiB (5%)
    Title : Влад и Снежиночка
    Language : Russian
    Default : Yes
    Forced : Yes
    Audio #2
    ID : 3
    Format : AC-3
    Format/Info : Audio Coding 3
    Mode extension : CM (complete main)
    Format settings, Endianness : Big
    Codec ID : A_AC3
    Duration : 1h 37mn
    Bit rate mode : Constant
    Bit rate : 384 Kbps
    Channel(s) : 6 channels
    Channel positions : Front: L C R, Side: L R, LFE
    Sampling rate : 48.0 KHz
    Bit depth : 16 bits
    Compression mode : Lossy
    Stream size : 268 MiB (11%)
    Language : English
    Default : No
    Forced : No
    Text
    ID : 4
    Format : UTF-8
    Codec ID : S_TEXT/UTF8
    Codec ID/Info : UTF-8 Plain Text
    Language : English
    Default : No
    Forced : No
    Menu
    00:00:00.000 : en:Chapter 1
    00:14:05.000 : en:Chapter 2
    00:24:06.000 : en:Chapter 3
    00:33:47.000 : en:Chapter 4
    00:44:27.000 : en:Chapter 5
    00:55:15.000 : en:Chapter 6
    01:05:27.000 : en:Chapter 7
    01:16:07.000 : en:Chapter 8
    01:31:05.000 : en:Chapter 9

    Скриншот c названием фильма

    Скриншоты

    Скачать .torrent

    Скачать торрент-файл бесплатно и на максимальной скорости!

    Как скачивать? · Что такое торрент? · Рейтинг и ограничения

    !ВНИМАНИЕ!
    Сайт не распространяет и не хранит электронные версии произведений, а занимается лишь лишь предоставлением доступа к создаваемому пользователями каталогу ссылок на торрент-файлы, которые содержат только списки хеш-сумм, убедительная просьба с жалобами обращаться напрямую к пользователю. Файлы для обмена на трекере предоставлены пользователями сайта, и администрация не несёт ответственности за их содержание. Просьба не заливать файлы, защищенные авторскими правами, а также файлы нелегального содержания!

    [Профиль] [ЛС]
    Показать сообщения:    
    Ответить на тему

    Текущее время: Сегодня, в 14:23

    Часовой пояс: GMT + 2



    Вы не можете начинать темы
    Вы не можете отвечать на сообщения
    Вы не можете редактировать свои сообщения
    Вы не можете удалять свои сообщения
    Вы не можете голосовать в опросах
    Вы не можете прикреплять файлы к сообщениям
    Вы не можете скачивать файлы