BitTorrentTracker PerecTracker.org
BitTorrentTracker PerecTracker.org
    
Регистрация  ·  Вход
 
 · 
Забыли пароль?

  • (Beat) Бродячие монахи - Америка © 2005, MP3, 320 kbps

    Ответить на тему
     
    Автор Сообщение

    Columb

    Создавать темы 14-Июн-2014 14:24

           

    [Цитировать]

    БРОДЯЧИЕ МОНАХИ
    Америка
    Жанр: Beat
    Страна: Россия
    Год издания: 2005
    Аудиокодек: MP3
    Тип рипа: tracks
    Битрейт аудио: 320 kbps
    Продолжительность: 00:45:04
    Наличие сканов в содержимом раздачи: да
    Треклист:
    01. Америка (2:52)
    02. Девочка из Нью-Йорка (Битница) (2:58)
    03. Хорошо жить одному (2:56)
    04. Такие вот дела (2:56)
    05. Всё как-то глупо получилось (3:56)
    06. Не надо больше слов (3:22)
    07. Люди ходят по луне (2:28)
    08. Как вечер прекрасен (3:42)
    09. Найду какую захочу (2:46)
    10. Последний разговор (3:28)
    11. Деньги (2:28)
    12. Позвони (2:54)
    13. Постой! (2:06)
    14. Я такой же, как все (3:02)
    15. Свет в твоём окне (2:54)
    16. Америка (реприза) (0:16)

    Лог создания рипа

    Exact Audio Copy V1.0 beta 3 from 29. August 2011
    Отчёт EAC об извлечении, выполненном 12. июня 2014, 13:30
    Бродячие монахи / Америка
    Дисковод: PIONEER DVD-RW DVR-220L Adapter: 0 ID: 1
    Режим чтения : ДостоверностьИспользование точного потока : ДаОтключение кэша аудио : ДаИспользование указателей C2 : Нет
    Коррекция смещения при чтении : 6Способность читать области Lead-in и Lead-out : НетЗаполнение пропущенных сэмплов тишиной : ДаУдаление блоков с тишиной в начале и конце : НетПри вычислениях CRC использовались нулевые сэмплы : ДаИнтерфейс : Встроенный Win32-интерфейс для Win NT/2000Обработка зазоров : Не обнаружено, добавлено к предыдущему треку
    Выходной формат : MP3: LAMEВыбранный битрейт : 320 kBit/sКачество : ВысокийДобавление ID3-тега : НетУтилита сжатия : C:\Program Files (x86)\LAME MP3 Encoder\lame.exeДополнительные параметры : --noreplaygain --preset insane
    TOC извлечённого CD
    Трек | Старт | Длительность | Начальный сектор | Конечный сектор --------------------------------------------------------------------- 1 | 0:00.00 | 2:52.00 | 0 | 12899 2 | 2:52.00 | 2:58.00 | 12900 | 26249 3 | 5:50.00 | 2:56.00 | 26250 | 39449 4 | 8:46.00 | 2:56.00 | 39450 | 52649 5 | 11:42.00 | 3:56.00 | 52650 | 70349 6 | 15:38.00 | 3:22.00 | 70350 | 85499 7 | 19:00.00 | 2:28.00 | 85500 | 96599 8 | 21:28.00 | 3:42.00 | 96600 | 113249 9 | 25:10.00 | 2:46.00 | 113250 | 125699 10 | 27:56.00 | 3:28.00 | 125700 | 141299 11 | 31:24.00 | 2:28.00 | 141300 | 152399 12 | 33:52.00 | 2:54.00 | 152400 | 165449 13 | 36:46.00 | 2:06.00 | 165450 | 174899 14 | 38:52.00 | 3:02.00 | 174900 | 188549 15 | 41:54.00 | 2:54.00 | 188550 | 201599 16 | 44:48.00 | 0:16.00 | 201600 | 202799
    Трек 1
    Имя файла E:\Мои документы\Windows Media Encoder\AUDIO\OUTPUT\01 - Бродячие монахи – Америка.wav
    Пиковый уровень 85.1 % Скорость извлечения 3.1 X Качество трека 99.9 % CRC теста 6B386473 CRC копии 6B386473 Трек не обнаружен в базе AccurateRip Копирование... OK
    Трек 2
    Имя файла E:\Мои документы\Windows Media Encoder\AUDIO\OUTPUT\02 - Бродячие монахи – Девочка из Нью-Йорка (Битница).wav
    Пиковый уровень 88.6 % Скорость извлечения 4.4 X Качество трека 100.0 % CRC теста FA55B1FE CRC копии FA55B1FE Трек не обнаружен в базе AccurateRip Копирование... OK
    Трек 3
    Имя файла E:\Мои документы\Windows Media Encoder\AUDIO\OUTPUT\03 - Бродячие монахи – Хорошо жить одному.wav
    Пиковый уровень 89.1 % Скорость извлечения 4.8 X Качество трека 100.0 % CRC теста 7F11D6FB CRC копии 7F11D6FB Трек не обнаружен в базе AccurateRip Копирование... OK
    Трек 4
    Имя файла E:\Мои документы\Windows Media Encoder\AUDIO\OUTPUT\04 - Бродячие монахи – Такие вот дела.wav
    Пиковый уровень 83.9 % Скорость извлечения 5.1 X Качество трека 100.0 % CRC теста 902FB65F CRC копии 902FB65F Трек не обнаружен в базе AccurateRip Копирование... OK
    Трек 5
    Имя файла E:\Мои документы\Windows Media Encoder\AUDIO\OUTPUT\05 - Бродячие монахи – Всё как-то глупо получилось.wav
    Пиковый уровень 88.9 % Скорость извлечения 5.6 X Качество трека 100.0 % CRC теста 7DBF5A96 CRC копии 7DBF5A96 Трек не обнаружен в базе AccurateRip Копирование... OK
    Трек 6
    Имя файла E:\Мои документы\Windows Media Encoder\AUDIO\OUTPUT\06 - Бродячие монахи – Не надо больше слов.wav
    Пиковый уровень 86.9 % Скорость извлечения 5.9 X Качество трека 100.0 % CRC теста 59D72549 CRC копии 59D72549 Трек не обнаружен в базе AccurateRip Копирование... OK
    Трек 7
    Имя файла E:\Мои документы\Windows Media Encoder\AUDIO\OUTPUT\07 - Бродячие монахи – Люди ходят по луне.wav
    Пиковый уровень 88.9 % Скорость извлечения 5.6 X Качество трека 100.0 % CRC теста 13B8CCBF CRC копии 13B8CCBF Трек не обнаружен в базе AccurateRip Копирование... OK
    Трек 8
    Имя файла E:\Мои документы\Windows Media Encoder\AUDIO\OUTPUT\08 - Бродячие монахи – Как вечер прекрасен.wav
    Пиковый уровень 88.5 % Скорость извлечения 6.4 X Качество трека 100.0 % CRC теста 635A004D CRC копии 635A004D Трек не обнаружен в базе AccurateRip Копирование... OK
    Трек 9
    Имя файла E:\Мои документы\Windows Media Encoder\AUDIO\OUTPUT\09 - Бродячие монахи – Найду какую захочу.wav
    Пиковый уровень 88.5 % Скорость извлечения 4.8 X Качество трека 99.9 % CRC теста 6E86621E CRC копии 6E86621E Трек не обнаружен в базе AccurateRip Копирование... OK
    Трек 10
    Имя файла E:\Мои документы\Windows Media Encoder\AUDIO\OUTPUT\10 - Бродячие монахи – Последний разговор.wav
    Пиковый уровень 88.2 % Скорость извлечения 6.8 X Качество трека 100.0 % CRC теста 9934A286 CRC копии 9934A286 Трек не обнаружен в базе AccurateRip Копирование... OK
    Трек 11
    Имя файла E:\Мои документы\Windows Media Encoder\AUDIO\OUTPUT\11 - Бродячие монахи – Деньги.wav
    Пиковый уровень 89.4 % Скорость извлечения 6.5 X Качество трека 100.0 % CRC теста 59663013 CRC копии 59663013 Трек не обнаружен в базе AccurateRip Копирование... OK
    Трек 12
    Имя файла E:\Мои документы\Windows Media Encoder\AUDIO\OUTPUT\12 - Бродячие монахи – Позвони.wav
    Пиковый уровень 88.5 % Скорость извлечения 7.1 X Качество трека 100.0 % CRC теста 2A79F4A2 CRC копии 2A79F4A2 Трек не обнаружен в базе AccurateRip Копирование... OK
    Трек 13
    Имя файла E:\Мои документы\Windows Media Encoder\AUDIO\OUTPUT\13 - Бродячие монахи – Постой!.wav
    Пиковый уровень 84.7 % Скорость извлечения 6.8 X Качество трека 100.0 % CRC теста 235F94AA CRC копии 235F94AA Трек не обнаружен в базе AccurateRip Копирование... OK
    Трек 14
    Имя файла E:\Мои документы\Windows Media Encoder\AUDIO\OUTPUT\14 - Бродячие монахи – Я такой же, как все.wav
    Пиковый уровень 85.2 % Скорость извлечения 7.4 X Качество трека 100.0 % CRC теста E3FCC834 CRC копии E3FCC834 Трек не обнаружен в базе AccurateRip Копирование... OK
    Трек 15
    Имя файла E:\Мои документы\Windows Media Encoder\AUDIO\OUTPUT\15 - Бродячие монахи – Свет в твоём окне.wav
    Пиковый уровень 84.7 % Скорость извлечения 7.5 X Качество трека 100.0 % CRC теста 9A5E00E7 CRC копии 9A5E00E7 Трек не обнаружен в базе AccurateRip Копирование... OK
    Трек 16
    Имя файла E:\Мои документы\Windows Media Encoder\AUDIO\OUTPUT\16 - Бродячие монахи – Америка (реприза).wav
    Пиковый уровень 88.4 % Скорость извлечения 2.7 X Качество трека 100.0 % CRC теста DBDCEC93 CRC копии DBDCEC93 Трек не обнаружен в базе AccurateRip Копирование... OK
    Ни одного трека нет в базе AccurateRip
    Ошибок не произошло
    Конец отчёта
    ==== Контрольная сумма отчёта 9915A94ACFE94787D9873433F0EC04EFD2A2CEDB0298730DB2003ABDAFC28D75 ====
    Раздача посвящается памяти Александра Егоровича Елизарьева

    Дополнительная информация:


    18 марта 2014 г. на 58-м году жизни скончался Александр Егорович Елизарьев. Музыкант группы "Бродячие монахи". Участник форума FORTIFICATION.RU. Исследователь истории Брестской крепости. Для близких - просто "Егорыч". Он был моим другом ... Был ...
    Скачать .torrent

    Скачать торрент-файл бесплатно и на максимальной скорости!

    Как скачивать? · Что такое торрент? · Рейтинг и ограничения

    !ВНИМАНИЕ!
    Сайт не распространяет и не хранит электронные версии произведений, а занимается лишь лишь предоставлением доступа к создаваемому пользователями каталогу ссылок на торрент-файлы, которые содержат только списки хеш-сумм, убедительная просьба с жалобами обращаться напрямую к пользователю. Файлы для обмена на трекере предоставлены пользователями сайта, и администрация не несёт ответственности за их содержание. Просьба не заливать файлы, защищенные авторскими правами, а также файлы нелегального содержания!

    [Профиль] [ЛС]
    Показать сообщения:    
    Ответить на тему

    Текущее время: Сегодня, в 04:10

    Часовой пояс: GMT + 2



    Вы не можете начинать темы
    Вы не можете отвечать на сообщения
    Вы не можете редактировать свои сообщения
    Вы не можете удалять свои сообщения
    Вы не можете голосовать в опросах
    Вы не можете прикреплять файлы к сообщениям
    Вы не можете скачивать файлы