Register  ·  Log in
Forgot password?

  • Темный дворецкий / Kuroshitsuji (Кентаро Отани / Kentarô Ohtani, Кейичи Сато / Kei'ichi Sato) [2014 г., Детектив, HDRip] DVO (GREEN TEA)

    Reply to topic
    Author Message


    Post 13-Jun-2014 23:35



    -Темный дворецкий / Kuroshitsuji-Производство: Япония, C&I Entertainment
    Год выпуска: 2014 г.
    Жанр: Детектив
    Продолжительность: 01:59:26
    Мировая премьера: 18 января 2014
    Перевод: Любительский (двухголосый, закадровый) [GREEN TEA]-Режиссер: Кентаро Отани / Kentarô Ohtani, Кейичи Сато / Kei'ichi Sato
    В ролях: Масато Ибу, Хиро Мидзусима, Кен Ясуда, Широта Юу, Горо Кишитани, Аямэ Горики, Юка, Мидзуки Ямамото, Таро Сигаки, Луис Курихара-Описание: 2020 год, Сиори Генбо управляет большой корпорацией. Сиори также является потомком благородной английской семьи и ей приходится решать сложные вопросы по указанию королевы…- -Качество видео: HDRip
    Контейнер: AVI
    Видео кодек: XviD
    Аудио кодек: AC3
    Видео: 720x304 (2.37:1), 23.976 fps, XviD build 50 ~1442 kbps avg, 0.28 bit/pixel
    Аудио: 48 kHz, AC3 Dolby Digital, 2/0 (L,R) ch, ~192 kbps
    Cубтитры: отсутствуют

    Media Info

    Complete name : D:\Black.Butler.2014.HDRip.1400mb.avi
    Format : AVI
    Format/Info : Audio Video Interleave
    File size : 1.37 GiB
    Duration : 1h 59mn
    Overall bit rate : 1 644 Kbps
    Writing application : VirtualDubMod | || (build 2550/release)
    Writing library : VirtualDubMod build 2550/release
    ID : 0
    Format : MPEG-4 Visual
    Format profile : Advanced Simple@L5
    Format settings, BVOP : 1
    Format settings, QPel : No
    Format settings, GMC : No warppoints
    Format settings, Matrix : Default (MPEG)
    Codec ID : DX50
    Codec ID/Hint : DivX 5
    Duration : 1h 59mn
    Bit rate : 1 442 Kbps
    Width : 720 pixels
    Height : 304 pixels
    Display aspect ratio : 2.35:1
    Frame rate : 23.976 fps
    Color space : YUV
    Chroma subsampling : 4:2:0
    Bit depth : 8 bits
    Scan type : Progressive
    Compression mode : Lossy
    Bits/(Pixel*Frame) : 0.275
    Stream size : 1.20 GiB (88%)
    Writing library : XviD 1.2.1 (UTC 2008-12-04)
    ID : 1
    Format : AC-3
    Format/Info : Audio Coding 3
    Mode extension : CM (complete main)
    Format settings, Endianness : Big
    Codec ID : 2000
    Duration : 1h 59mn
    Bit rate mode : Constant
    Bit rate : 192 Kbps
    Channel(s) : 2 channels
    Channel positions : Front: L R
    Sampling rate : 48.0 KHz
    Bit depth : 16 bits
    Compression mode : Lossy
    Stream size : 164 MiB (12%)
    Alignment : Split accross interleaves
    Interleave, duration : 42 ms (1.00 video frame)
    Interleave, preload duration : 500 ms


    Раздача мультитрекерная, при нуле сидов (раздающих) можете смело скачивать этот релиз!
    Download .torrent

    Download free and at maximum speed!

    How to Download? · What is a torrent? · Ratings and Limitations

    The site does not extend and does not store electronic(digital) versions of products, and only gives access to a reference catalogue created by users on torrent-files which contain only lists of the hash-sums, the earnest entreaty, with complaints(abuse) to access directly to the user. Files for an exchange on tracker are given by users of a site, and the administration does not bear the responsibility for their maintenance. The request to not fill in the files protected by copyrights, and also files of the illegal maintenance!

    [Profile] [PM]
    Display posts from previous:    
    Reply to topic

    The time now is: Today 09:49

    All times are GMT + 3 Hours

    You cannot post new topics in this forum
    You cannot reply to topics in this forum
    You cannot edit your posts in this forum
    You cannot delete your posts in this forum
    You cannot vote in polls in this forum
    You cannot attach files in this forum
    You cannot download files in this forum