BitTorrentTracker PerecTracker.org
BitTorrentTracker PerecTracker.org
    
Регистрация  ·  Вход
 
 · 
Забыли пароль?

  • Нимфоманка: Часть 1 / Nymphomaniac: Vol. I (Ларс фон Триер / Lars von Trier) [2013, Драма, BDRip] AVO (Ю.Сербин) + Original (Eng) + Sub (rus., eng.)

    Ответить на тему
     
    Автор Сообщение

    Abbastar

    Создавать темы 11-Июн-2014 22:43

           

    [Цитировать]

    Нимфоманка: Часть 1
    Nymphomaniac: Vol. I
    -«Забудь о любви»-Страна: Дания, Германия, Франция, Бельгия
    Жанр: драма
    Год выпуска: 2013
    Продолжительность: 01:57:20--Перевод: Авторский (одноголосый закадровый) (Сербин Юрий)
    Cубтитры: Русские, английские
    Оригинальная аудиодорожка: английский--Режиссер:
    Ларс фон Триер / Lars von Trier
    В ролях:
    (Joe), Стэйси Мартин(Young Joe), Стеллан Скарсгард (Seligman), Шайа ЛаБаф (Jerôme), Кристиан Слэйтер (Joe's Father), Ума Турман (Mrs. H), Софи Кеннеди Кларк(B), Йенс Альбинус (S), Николас Бро[/url] (F), Фелисити Гилберт (Secretary), Конни Нильсен (Joe's Mother), Джейми Белл (K, в титрах не указан)--Описание:Это светлая и поэтичная история эротических переживаний женщины от рождения до пятидесятилетия, рассказанная от лица главной героини, женщины по имени Джо, поставившей себе диагноз - нимфомания. Холодным зимним утром Селигман, немолодой одинокий холостяк, натыкается в переулке на Джо, избитую и находящуюся в полубессознательном состоянии. Доставив женщину домой, он рассматривает ее раны и задается вопросом, как дошла она до такой жизни. Джо рассказывает Селигману историю своей насыщенной молодости, изобилующую параллельными сюжетами и неожиданными отступлениями.--Качество видео: BDRip (Blu-ray Disc 1080p)
    Формат видео: AVI
    Видео: 720x304 (2.37:1), 23.976 fps, XviD MPEG-4 ~1756 kbps avg, 0.33 bit/pixel
    Аудио 1: 48 kHz, AC3 Dolby Digital, 3/2 (L,C,R,l,r) + LFE ch, ~448 kbps Russian
    Аудио 2: 48 kHz, AC3 Dolby Digital, 3/2 (L,C,R,l,r) + LFE ch, ~448 kbps English

    Media Info

    General
    Complete name : F:\Рипы\Nimfomanka.№1.2013.BDRip\Nimfomanka.№1.2013.BDRip.avi
    Format : AVI
    Format/Info : Audio Video Interleave
    Format profile : OpenDML
    File size : 2.18 GiB
    Duration : 1h 57mn
    Overall bit rate : 2 659 Kbps
    Writing application : VirtualDubModRus 1.5.10.2 (build 2542/release)
    Writing library : VirtualDubMod build 2542/release
    Video
    ID : 0
    Format : MPEG-4 Visual
    Format profile : Advanced Simple@L5
    Format settings, BVOP : 1
    Format settings, QPel : No
    Format settings, GMC : No warppoints
    Format settings, Matrix : Custom
    Codec ID : XVID
    Codec ID/Hint : XviD
    Duration : 1h 57mn
    Bit rate : 1 745 Kbps
    Width : 720 pixels
    Height : 304 pixels
    Display aspect ratio : 2.35:1
    Frame rate : 23.976 fps
    Color space : YUV
    Chroma subsampling : 4:2:0
    Bit depth : 8 bits
    Scan type : Progressive
    Compression mode : Lossy
    Bits/(Pixel*Frame) : 0.333
    Stream size : 1.43 GiB (66%)
    Writing library : XviD 73
    Audio #1
    ID : 1
    Format : AC-3
    Format/Info : Audio Coding 3
    Mode extension : CM (complete main)
    Format settings, Endianness : Big
    Codec ID : 2000
    Duration : 1h 57mn
    Bit rate mode : Constant
    Bit rate : 448 Kbps
    Channel(s) : 6 channels
    Channel positions : Front: L C R, Side: L R, LFE
    Sampling rate : 48.0 KHz
    Bit depth : 16 bits
    Compression mode : Lossy
    Stream size : 376 MiB (17%)
    Alignment : Split accross interleaves
    Interleave, duration : 42 ms (1.00 video frame)
    Interleave, preload duration : 500 ms
    Audio #2
    ID : 2
    Format : AC-3
    Format/Info : Audio Coding 3
    Mode extension : CM (complete main)
    Format settings, Endianness : Big
    Codec ID : 2000
    Duration : 1h 57mn
    Bit rate mode : Constant
    Bit rate : 448 Kbps
    Channel(s) : 6 channels
    Channel positions : Front: L C R, Side: L R, LFE
    Sampling rate : 48.0 KHz
    Bit depth : 16 bits
    Compression mode : Lossy
    Stream size : 376 MiB (17%)
    Alignment : Split accross interleaves
    Interleave, duration : 42 ms (1.00 video frame)
    Interleave, preload duration : 500 ms

    Скриншоты

    Скачать .torrent

    Скачать торрент-файл бесплатно и на максимальной скорости!

    Как скачивать? · Что такое торрент? · Рейтинг и ограничения

    !ВНИМАНИЕ!
    Сайт не распространяет и не хранит электронные версии произведений, а занимается лишь лишь предоставлением доступа к создаваемому пользователями каталогу ссылок на торрент-файлы, которые содержат только списки хеш-сумм, убедительная просьба с жалобами обращаться напрямую к пользователю. Файлы для обмена на трекере предоставлены пользователями сайта, и администрация не несёт ответственности за их содержание. Просьба не заливать файлы, защищенные авторскими правами, а также файлы нелегального содержания!


    _________________
    [Профиль] [ЛС]
    Показать сообщения:    
    Ответить на тему

    Текущее время: Сегодня, в 14:38

    Часовой пояс: GMT + 2



    Вы не можете начинать темы
    Вы не можете отвечать на сообщения
    Вы не можете редактировать свои сообщения
    Вы не можете удалять свои сообщения
    Вы не можете голосовать в опросах
    Вы не можете прикреплять файлы к сообщениям
    Вы не можете скачивать файлы