BitTorrentTracker PerecTracker.org
BitTorrentTracker PerecTracker.org
    
Регистрация  ·  Вход
 
 · 
Забыли пароль?

  • Глаз тигра / Eye of the Tiger (Ричард Сарафьян /Richard C. Sarafian) [1986, США, боевик, DVDRip] MVO

    Ответить на тему
     
    Автор Сообщение

    Columb

    Создавать темы 09-Июн-2014 11:48

           

    [Цитировать]

    Глаз тигра / Eye of the Tiger
    Страна: США
    Жанр: боевик
    Год выпуска: 1986
    Продолжительность: 01:31:59
    Перевод: Профессиональный (многоголосый закадровый)
    Cубтитры: нет
    Режиссер: Ричард Сарафьян /Richard C. Sarafian
    В ролях: Гэри Бьюзи, Яфет Котто, Сеймур Кассель, Берт Ремсен, Уильям Смит, Кимберлин Браун
    Описание: Вернувшись с войны во Вьетнаме, Бак Мэтьюс устроился прорабом на стройке в своём небольшом городишке в Техасе. Однажды после ссоры в баре, защищая свою жизнь, он случайно убил бандита и оказался в тюрьме. Там он спас жизнь одному из очень влиятельных мексиканских гангстеров Джемми, с которым вместе и вышел на свободу. Чтобы отблагодарить Бака, мексиканец предложил ему поехать вместе с ним в Мексику...
    Сэмпл: http://multi-up.com/979210
    Качество видео: DVDRip
    Формат видео: AVI
    Видео: 720x400 (1.80:1), 23.976 fps, XviD build 50 ~2074 kbps avg, 0.30 bit/pixel
    Аудио: 48 kHz, AC3 Dolby Digital, 2/0 (L,R) ch, ~192.00 kbps avg

    MediaInfo

    downloadEye_of_the_Tiger_1986.DVDRip.avi
    Формат : AVI
    Формат/Информация : Audio Video Interleave
    Размер файла : 1.46 GiB
    Продолжительность : 1h 31mn
    Общий поток : 2 276 Kbps
    Программа кодирования : VirtualDubMod 1.5.10.3 | www.virtualdub-fr.org || (build 2550/release)
    Библиотека кодирования : VirtualDubMod build 2550/release
    Video
    Идентификатор : 0
    Формат : MPEG-4 Visual
    Профиль формата : Advanced Simple@L5
    Параметр BVOP формата : 3
    Параметр QPel формата : No
    Параметр GMC формата : No warppoints
    Параметр матрицы формата : Default (H.263)
    Идентификатор кодека : XVID
    Идентификатор кодека/Подсказка : XviD
    Продолжительность : 1h 31mn
    Битрейт : 2 074 Kbps
    Ширина : 720 pixels
    Высота : 400 pixels
    Соотношение сторон : 16:9
    Частота кадров : 23.976 fps
    Цветовое пространство : YUV
    Субдискретизация насыщенности : 4:2:0
    Битовая глубина : 8 bits
    Тип развёртки : Progressive
    Метод сжатия : Lossy
    Бит/(Пиксели*Кадры) : 0.300
    Размер потока : 1.33 GiB (91%)
    Библиотека кодирования : XviD 1.2.1 (UTC 2008-12-04)
    Audio
    Идентификатор : 1
    Формат : AC-3
    Формат/Информация : Audio Coding 3
    Расширение режима : CM (complete main)
    Параметр Endianness формата : Big
    Идентификатор кодека : 2000
    Продолжительность : 1h 31mn
    Вид битрейта : Constant
    Битрейт : 192 Kbps
    Каналы : 2 channels
    Расположение каналов : Front: L R
    Частота : 48.0 KHz
    Битовая глубина : 16 bits
    Метод сжатия : Lossy
    Размер потока : 126 MiB (8%)
    Выравнивание : Split accross interleaves
    Продолжительность промежутка : 42 ms (1.00 video frame)
    Время предзагрузки промежутка : 500 ms

    Скриншот c названием фильма

    Скриншоты

    Скачать .torrent

    Скачать торрент-файл бесплатно и на максимальной скорости!

    Как скачивать? · Что такое торрент? · Рейтинг и ограничения

    !ВНИМАНИЕ!
    Сайт не распространяет и не хранит электронные версии произведений, а занимается лишь лишь предоставлением доступа к создаваемому пользователями каталогу ссылок на торрент-файлы, которые содержат только списки хеш-сумм, убедительная просьба с жалобами обращаться напрямую к пользователю. Файлы для обмена на трекере предоставлены пользователями сайта, и администрация не несёт ответственности за их содержание. Просьба не заливать файлы, защищенные авторскими правами, а также файлы нелегального содержания!

    [Профиль] [ЛС]
    Показать сообщения:    
    Ответить на тему

    Текущее время: Сегодня, в 14:16

    Часовой пояс: GMT + 2



    Вы не можете начинать темы
    Вы не можете отвечать на сообщения
    Вы не можете редактировать свои сообщения
    Вы не можете удалять свои сообщения
    Вы не можете голосовать в опросах
    Вы не можете прикреплять файлы к сообщениям
    Вы не можете скачивать файлы