BitTorrentTracker PerecTracker.org
BitTorrentTracker PerecTracker.org
    
Регистрация  ·  Вход
 
 · 
Забыли пароль?

  • Участь быть царём / Le Destin d'etre roi / The Destiny to Be a King (Николай Томов / Nicolai Thomas) [2009, документальный, биографический, DVB] DVO (Ред Медиа)

    Ответить на тему
     
    Автор Сообщение

    Columb

    Создавать темы 06-Июн-2014 15:31

           

    [Цитировать]

    Участь быть царём
    Le Destin d'être roi-Дата/Год выпуска: 2009
    Страна: Франция, Канада, Болгария
    Жанр: документальный, биографический
    Продолжительность: 00:52:29
    Перевод: Профессиональный (двухголосый закадровый)
    Доп. инфо о переводе: ТПО "Ред Медиа"
    Русские субтитры: нет
    Режиссер: Николай Томов / Nicolaï Thomas
    Телеканал: 365 днейОписание: Фильм о царе Болгарии (1943-1946) и премьер-министре этой страны (2001-2005) Симеоне Борисове Саксен-Кобург-Готском – царствовавшем под именем Симеон II (в возрасте 6-9 лет).
    Симеон умел молчать, притворяться и быть незаметным: давным-давно, еще в Александрии, при дворе египетского короля Фарука, юный Симеон дал себе слово ни в чем не походить на фантазера-деда и мечтателя-отца. Его детям не придется экономить каждый грош, жить под чужой крышей и из милости обедать у знакомых… Так и вышло: он весьма преуспел в бизнесе, вырастил четверых сыновей и дочь. Впереди была тихая безбедная старость — и тут его жизнь развернулась на сто восемьдесят градусов.
    Доп. информация: DVB-S
    Участник Festival du film de chercheur (Nancy) 2010.
    Сэмпл: http://multi-up.com/978436
    качество: DVB
    формат: MKV
    Видео: MPEG Video 2, 720x576@768x576 (4:3), 25 fps, ~2953 kbps avg, 0.285 bit/pixel
    Аудио: 48 kHz, MPEG Audio 2, 2 ch, ~192.00 kbps avg

    MediaInfo

    ОбщееУникальный идентификатор : 206364646611009610612906962447636703279 (0x9B40629EE618042E921A1870F951282F)Полное имя : H:\My Torrents\[apreder]Le_Destin_d'etre_roi(2009)DVB.mkvФормат : MatroskaВерсия формата : Version 2Размер файла : 1,18 ГбайтПродолжительность : 52 м.Режим общего битрейта : ПеременныйОбщий поток : 3209 Кбит/секДата кодирования : UTC 2014-06-05 11:08:01Программа кодирования : mkvmerge v6.9.1 ('Blue Panther') 32bit built on Apr 18 2014 18:15:44Библиотека кодирования : libebml v1.3.0 + libmatroska v1.4.1
    ВидеоИдентификатор : 1Формат : MPEG VideoВерсия формата : Version 2Профиль формата : Main@MainПараметр BVOP формата : НетПараметр матрицы формата : ВыборочнаяИдентификатор кодека : V_MPEG2Идентификатор кодека/Информация : MPEG 1 or 2 VideoПродолжительность : 52 м.Вид битрейта : ПеременныйБитрейт : 2953 Кбит/секМаксимальный битрейт : 5484 Кбит/секШирина : 720 пикселейВысота : 576 пикселейСоотношение сторон : 4:3Режим частоты кадров : ПостоянныйЧастота кадров : 25,000 кадров/секСтандарт вещания : PALЦветовое пространство : YUVСубдискретизация насыщенности : 4:2:0Битовая глубина : 8 битТип развёртки : ЧересстрочнаяПорядок развёртки : Верхнее поле первоеМетод сжатия : С потерямиБит/(Пиксели*Кадры) : 0.285Временной код первого кадра : 00:00:00:00Оригинал временного кода : Group of pictures headerРазмер потока : 1,08 Гбайт (92%)Default : ДаForced : Нет
    АудиоИдентификатор : 2Формат : MPEG AudioВерсия формата : Version 1Профиль формата : Layer 2Идентификатор кодека : A_MPEG/L2Идентификатор кодека/Подсказка : MP2Продолжительность : 52 м.Вид битрейта : ПостоянныйБитрейт : 192 Кбит/секКаналы : 2 каналаЧастота : 48,0 КГцМетод сжатия : С потерямиРазмер потока : 72,1 Мбайт (6%)Язык : RussianDefault : ДаForced : Нет

    Скриншоты


    Резервные скриншоты


    -1'435/1'415√[-4]
    Скачать .torrent

    Скачать торрент-файл бесплатно и на максимальной скорости!

    Как скачивать? · Что такое торрент? · Рейтинг и ограничения

    !ВНИМАНИЕ!
    Сайт не распространяет и не хранит электронные версии произведений, а занимается лишь лишь предоставлением доступа к создаваемому пользователями каталогу ссылок на торрент-файлы, которые содержат только списки хеш-сумм, убедительная просьба с жалобами обращаться напрямую к пользователю. Файлы для обмена на трекере предоставлены пользователями сайта, и администрация не несёт ответственности за их содержание. Просьба не заливать файлы, защищенные авторскими правами, а также файлы нелегального содержания!

    [Профиль] [ЛС]
    Показать сообщения:    
    Ответить на тему

    Текущее время: Сегодня, в 02:34

    Часовой пояс: GMT + 2



    Вы не можете начинать темы
    Вы не можете отвечать на сообщения
    Вы не можете редактировать свои сообщения
    Вы не можете удалять свои сообщения
    Вы не можете голосовать в опросах
    Вы не можете прикреплять файлы к сообщениям
    Вы не можете скачивать файлы