BitTorrentTracker PerecTracker.org
BitTorrentTracker PerecTracker.org
    
Регистрация  ·  Вход
 
 · 
Забыли пароль?

  • Под сильным ангелом / Под крепким ангелом / Песни пьющих / Pod mocnym aniolem (Войчех Смажовский / Wojciech Smarzowski) [2014, Польша, драма, DVDRip] Sub Rus + Sub Ukr + Original Pol

    Ответить на тему
     
    Автор Сообщение

    Columb

    Создавать темы 06-Июн-2014 15:18

           

    [Цитировать]

    Под сильным ангелом / Под крепким ангелом / Песни пьющих / Pod mocnym aniolem
    Страна: Польша
    Жанр: драма
    Год выпуска: 2014
    Продолжительность: 01:44:48
    Перевод: Субтитры русские, украинские
    Cубтитры: украинские (ivan vyrvyvuho)
    Cубтитры: русские (редактор MPil)
    Оригинальная аудиодорожка: польский
    Режиссер: Войчех Смажовский / Wojciech Smarzowski
    В ролях: Роберт Венцкевич, Юлия Киёвска, Анджей Грабовский, Иза Куна, Ивона Бельска, Кинга Прейс, Ивона Вшолкувна, Яцек Брачак, Марьян Дзендзель, Аркадиуш Якубик, Лех Дыблик, Адам Воронович, Роберт Валих, Кшиштоф Кершновский, Марчин Дорочиньский
    Описание: Ежи - писатель и хронический алкоголик. Знакомство с молодой девушкой привносит смысл в его жизнь. Ему даже кажется, что он победил свою алкогольную зависимость. Но не тут-то было. Заглянув в бар "Под Сильным Ангелом", Ежи уже не может остановиться: водка, водка и ещё раз водка, без конца и края. Наконец он в бессознательном состоянии попадает в больницу, где проходит курс реабилитации с такими же бедолагами, как он. Один из методов лечения - чтение перед всеми пациентами историй о своих пьяных похождениях, водочных экспериментах, жизненных драмах.
    "Под сильным ангелом" - это рассказ о медленном нравственном падении человека, о трагической борьбе с собой и своим пороком, об отчаянии, надежде, следующих провалах и о любви, которая, как свет в тоннеле, даёт главному герою последний шанс, чтобы вернуться к нормальной жизни и освободиться от страшной болезни.
    Сценарий Войчеха Смажовского по мотивам одноимённой повести Ежи Пильха
    Доп.информация:
    В фильме присутствует ненормативная лексика и сцены насилия/секса


    www.filmweb.pl 7,0/10 (34.355 glosow)
    Сэмпл: http://multi-up.com/978422
    Качество видео: DVDRip
    Формат видео: AVI
    Видео: XviD, 720x304, 2.35:1, 25.000 fps, 1408 kbps
    Аудио: AC3, 48 kHz, 448 kbps, 6 ch, Original (польский)
    Формат субтитров: softsub (SRT)

    MediaInfo

    General
    Complete name : Pod Mocnym Aniolem.2014.DVDRip.avi
    Format : AVI
    Format/Info : Audio Video Interleave
    File size : 1.37 GiB
    Duration : 1h 44mn
    Overall bit rate : 1 866 Kbps
    Writing library : VirtualDub build 32817/release
    Video
    ID : 0
    Format : MPEG-4 Visual
    Format profile : Advanced Simple@L5
    Format settings, BVOP : 1
    Format settings, QPel : No
    Format settings, GMC : No warppoints
    Format settings, Matrix : Default (H.263)
    Muxing mode : Packed bitstream
    Codec ID : XVID
    Codec ID/Hint : XviD
    Duration : 1h 44mn
    Bit rate : 1 408 Kbps
    Width : 720 pixels
    Height : 304 pixels
    Display aspect ratio : 2.35:1
    Frame rate : 25.000 fps
    Color space : YUV
    Chroma subsampling : 4:2:0
    Bit depth : 8 bits
    Scan type : Progressive
    Compression mode : Lossy
    Bits/(Pixel*Frame) : 0.257
    Stream size : 1.03 GiB (75%)
    Writing library : XviD 1.2.1 (UTC 2008-12-04)
    Audio
    ID : 1
    Format : AC-3
    Format/Info : Audio Coding 3
    Mode extension : CM (complete main)
    Format settings, Endianness : Big
    Codec ID : 2000
    Duration : 1h 44mn
    Bit rate mode : Constant
    Bit rate : 448 Kbps
    Channel(s) : 6 channels
    Channel positions : Front: L C R, Side: L R, LFE
    Sampling rate : 48.0 KHz
    Bit depth : 16 bits
    Compression mode : Lossy
    Stream size : 336 MiB (24%)
    Alignment : Split accross interleaves
    Interleave, duration : 40 ms (1.00 video frame)
    Interleave, preload duration : 500 ms

    Скриншот c названием фильма

    Скриншоты



    Скачать .torrent

    Скачать торрент-файл бесплатно и на максимальной скорости!

    Как скачивать? · Что такое торрент? · Рейтинг и ограничения

    !ВНИМАНИЕ!
    Сайт не распространяет и не хранит электронные версии произведений, а занимается лишь лишь предоставлением доступа к создаваемому пользователями каталогу ссылок на торрент-файлы, которые содержат только списки хеш-сумм, убедительная просьба с жалобами обращаться напрямую к пользователю. Файлы для обмена на трекере предоставлены пользователями сайта, и администрация не несёт ответственности за их содержание. Просьба не заливать файлы, защищенные авторскими правами, а также файлы нелегального содержания!

    [Профиль] [ЛС]
    Показать сообщения:    
    Ответить на тему

    Текущее время: Сегодня, в 22:07

    Часовой пояс: GMT + 2



    Вы не можете начинать темы
    Вы не можете отвечать на сообщения
    Вы не можете редактировать свои сообщения
    Вы не можете удалять свои сообщения
    Вы не можете голосовать в опросах
    Вы не можете прикреплять файлы к сообщениям
    Вы не можете скачивать файлы