BitTorrentTracker PerecTracker.org
BitTorrentTracker PerecTracker.org
    
Регистрация  ·  Вход
 
 · 
Забыли пароль?

  • Бабушка Метелица / Матушка-Метелица / Perinbaba (Юрай Якубиско / Juraj Jakubisko) [1985, Чехословакия, Германия (ФРГ), сказка, фэнтези, комедия, HDTVRip 720p] DVO + Sub Rus

    Ответить на тему
     
    Автор Сообщение

    Columb

    Создавать темы 06-Июн-2014 15:08

           

    [Цитировать]

    Матушка-Метелица / Perinbaba
    Страна: Чехословакия, Германия (ФРГ)
    Жанр: сказка, фэнтези, комедия
    Год выпуска: 1985
    Продолжительность: 1:29:41
    Перевод: Любительский (двухголосый закадровый) (leburs)
    Cубтитры: русские (leburs), английские
    Оригинальная аудиодорожка: словацкая
    Режиссер: Юрай Якубиско / Juraj Jakubisko
    В ролях: Джульетта Мазина / Giulietta Masina, Tobias Hoesl, Petra Vancíková, Соня Валентова, Pavol Mikulík, Milada Ondrasíková, Валери Капланова, Eva Horká, Ян Барто, Карел Эффа
    Описание: Фильм-сказка по мотивам сказки братьев Гримм о Матушке-Метелице, повелительнице снежных бурь. О её помощнике, мальчике Якубе, который не боялся Смерти. А также о бедной и доброй девушке-сироте, eё завистливой сестре и жадной и злой мачехе… И, конечно, о том, что Любовь побеждает Смерть.
    Сэмпл: http://multi-up.com/978406

    Тип релиза: HDTVRip 720p
    Контейнер: MKV
    Видео: H.264/AVC, 960x720, 1.33:1, 25.00fps, 3949kbps
    Аудио: Русский, AC3 2.0, 192kbps, 48 kHz
    Аудио 2: Словацкий, AC3 2.0, 192kbps, 48 kHz
    Формат субтитров: softsub (SRT)

    MediaInfo

    Complete name : Perinbaba.1985.720p.HDTV.Rus.Slo.mkv
    Format : Matroska
    Format version : Version 2
    File size : 2.77 GiB
    Duration : 1h 29mn
    Overall bit rate : 4 421 Kbps
    Movie name : Perinbaba (1985)
    Encoded date : UTC 2014-06-05 09:32:05
    Writing application : mkvmerge v5.8.0 ('No Sleep / Pillow') built on Sep 2 2012 15:37:04
    Writing library : libebml v1.2.3 + libmatroska v1.3.0
    Video
    ID : 1
    Format : AVC
    Format/Info : Advanced Video Codec
    Format profile : High@L4.1
    Format settings, CABAC : Yes
    Format settings, ReFrames : 12 frames
    Codec ID : V_MPEG4/ISO/AVC
    Duration : 1h 29mn
    Bit rate : 3 949 Kbps
    Width : 960 pixels
    Height : 720 pixels
    Display aspect ratio : 4:3
    Frame rate mode : Constant
    Frame rate : 25.000 fps
    Color space : YUV
    Chroma subsampling : 4:2:0
    Bit depth : 8 bits
    Scan type : Progressive
    Bits/(Pixel*Frame) : 0.229
    Stream size : 2.47 GiB (89%)
    Title : Perinbaba.1985
    Writing library : x264 core 142 r2389 956c8d8
    Encoding settings : cabac=1 / ref=12 / deblock=1:-3:-3 / analyse=0x3:0x133 / me=tesa / subme=10 / psy=1 / psy_rd=1.05:0.00 / mixed_ref=1 / me_range=24 / chroma_me=1 / trellis=2 / 8x8dct=1 / cqm=0 / deadzone=21,11 / fast_pskip=0 / chroma_qp_offset=-2 / threads=12 / lookahead_threads=2 / sliced_threads=0 / nr=0 / decimate=0 / interlaced=0 / bluray_compat=0 / constrained_intra=0 / bframes=8 / b_pyramid=2 / b_adapt=2 / b_bias=0 / direct=3 / weightb=1 / open_gop=0 / weightp=2 / keyint=250 / keyint_min=25 / scenecut=40 / intra_refresh=0 / rc_lookahead=60 / rc=crf / mbtree=0 / crf=16.0 / qcomp=0.60 / qpmin=0 / qpmax=69 / qpstep=4 / vbv_maxrate=62500 / vbv_bufsize=78125 / crf_max=0.0 / nal_hrd=none / filler=0 / ip_ratio=1.40 / pb_ratio=1.30 / aq=1:0.80
    Language : Slovak
    Default : Yes
    Forced : No
    Audio #1
    ID : 2
    Format : AC-3
    Format/Info : Audio Coding 3
    Mode extension : CM (complete main)
    Format settings, Endianness : Big
    Codec ID : A_AC3
    Duration : 1h 29mn
    Bit rate mode : Constant
    Bit rate : 192 Kbps
    Channel(s) : 2 channels
    Channel positions : Front: L R
    Sampling rate : 48.0 KHz
    Bit depth : 16 bits
    Compression mode : Lossy
    Stream size : 123 MiB (4%)
    Title : [by leburs]
    Language : Russian
    Default : Yes
    Forced : No
    Audio #2
    ID : 3
    Format : AC-3
    Format/Info : Audio Coding 3
    Mode extension : CM (complete main)
    Format settings, Endianness : Big
    Codec ID : A_AC3
    Duration : 1h 29mn
    Bit rate mode : Constant
    Bit rate : 192 Kbps
    Channel(s) : 2 channels
    Channel positions : Front: L R
    Sampling rate : 48.0 KHz
    Bit depth : 16 bits
    Compression mode : Lossy
    Stream size : 123 MiB (4%)
    Language : Slovak
    Default : No
    Forced : No
    Text #1
    ID : 4
    Format : UTF-8
    Codec ID : S_TEXT/UTF8
    Codec ID/Info : UTF-8 Plain Text
    Language : Russian
    Default : Yes
    Forced : No
    Text #2
    ID : 5
    Format : UTF-8
    Codec ID : S_TEXT/UTF8
    Codec ID/Info : UTF-8 Plain Text
    Language : English
    Default : No
    Forced : No

    Скриншоты

    Скачать .torrent

    Скачать торрент-файл бесплатно и на максимальной скорости!

    Как скачивать? · Что такое торрент? · Рейтинг и ограничения

    !ВНИМАНИЕ!
    Сайт не распространяет и не хранит электронные версии произведений, а занимается лишь лишь предоставлением доступа к создаваемому пользователями каталогу ссылок на торрент-файлы, которые содержат только списки хеш-сумм, убедительная просьба с жалобами обращаться напрямую к пользователю. Файлы для обмена на трекере предоставлены пользователями сайта, и администрация не несёт ответственности за их содержание. Просьба не заливать файлы, защищенные авторскими правами, а также файлы нелегального содержания!

    [Профиль] [ЛС]
    Показать сообщения:    
    Ответить на тему

    Текущее время: Сегодня, в 16:22

    Часовой пояс: GMT + 2



    Вы не можете начинать темы
    Вы не можете отвечать на сообщения
    Вы не можете редактировать свои сообщения
    Вы не можете удалять свои сообщения
    Вы не можете голосовать в опросах
    Вы не можете прикреплять файлы к сообщениям
    Вы не можете скачивать файлы