BitTorrentTracker PerecTracker.org
BitTorrentTracker PerecTracker.org
    
Регистрация  ·  Вход
 
 · 
Забыли пароль?

  • Военный ныряльщик / Men of Honor (Джордж Тиллман мл. / George Tillman Jr.) [2000, США, Драма, биография, HDTVRip] Dub

    Ответить на тему
     
    Автор Сообщение

    Columb

    Создавать темы 05-Июн-2014 15:35

           

    [Цитировать]

    Военный ныряльщик / Men of Honor
    Страна: США
    Жанр: Драма, биография
    Год выпуска: 2000
    Продолжительность: 01:58:22
    Перевод: Профессиональный (дублированный)
    Cубтитры: нет
    Оригинальная аудиодорожка: нет
    Режиссер: Джордж Тиллман мл. / George Tillman Jr.
    В ролях: Роберт Де Ниро, Кьюба Гудинг мл., Шарлиз Терон, Онжаню Эллис, Хэл Холбрук, Майкл Рапапорт, Пауэрс Бут, Дэвид Кит, Холт МакКэллани, Дэвид Конрад
    Описание: Фильм основан на реальных событиях из жизни легендарного водолаза Карла Брашира. Его наставник и старший офицер Билл Сандэй убежден, что неграм нечего делать во флоте, и самыми жестокими и бесчеловечными способами издевается и «обламывает» амбициозного новичка.
    Однако ему это не удается, и более того, вскоре он начинает испытывать симпатию к этому чрезвычайно упертому парню, который скорее погибнет, чем покажет слабость. Вместе они пытаются сопротивляться бюрократам из командования ВМФ, которых не устраивает цвет кожи героя.
    Карл всегда вызывается добровольцем на выполнение самых опасных секретных спецопераций, связанных с повышенным риском для жизни. Однако судьба приготовила ему куда более страшное испытание, преодолеть которое способен только настоящий герой.
    Сэмпл: http://multi-up.com/978408
    Качество видео: HDTVRip
    Формат видео: AVI
    Видео: MPEG4, XviD, 720x400 (16/9), 25.000 fps, 1 555 Kbps (0.216 bit/pixel)
    Аудио: AC-3, 48.0 KHz, 2 ch, 192 Kbps, CBR

    MediaInfo

    Общее
    Полное имя : K:\Военный ныряльщик.avi
    Формат : AVI
    Формат/Информация : Audio Video Interleave
    Размер файла : 1,45 Гбайт
    Продолжительность : 1 ч. 58 м.
    Общий поток : 1757 Кбит/сек
    Название фильма : Военный ныряльщик / Men of Honor (2000)
    Программа кодирования : VirtualDubMod 1.5.10.2 (build 2540/release)
    Библиотека кодирования : VirtualDubMod build 2540/release
    Правообладатель : miha2154
    Видео
    Идентификатор : 0
    Формат : MPEG-4 Visual
    Профиль формата : Advanced Simple@L5
    Параметр BVOP формата : 2
    Параметр QPel формата : Нет
    Параметр GMC формата : Без точки перехода
    Параметр матрицы формата : Default (MPEG)
    Идентификатор кодека : XVID
    Идентификатор кодека/Подсказка : XviD
    Продолжительность : 1 ч. 58 м.
    Битрейт : 1555 Кбит/сек
    Ширина : 720 пикселей
    Высота : 400 пикселей
    Соотношение сторон : 16:9
    Частота кадров : 25,000 кадров/сек
    Цветовое пространство : YUV
    Субдискретизация насыщенности : 4:2:0
    Битовая глубина : 8 бит
    Тип развёртки : Прогрессивная
    Метод сжатия : С потерями
    Бит/(Пиксели*Кадры) : 0.216
    Размер потока : 1,29 Гбайт (89%)
    Библиотека кодирования : XviD 1.1.0 (UTC 2005-11-22)
    Аудио
    Идентификатор : 1
    Формат : AC-3
    Формат/Информация : Audio Coding 3
    Расширение режима : CM (complete main)
    Параметр Endianness формата : Big
    Идентификатор кодека : 2000
    Продолжительность : 1 ч. 58 м.
    Вид битрейта : Постоянный
    Битрейт : 192 Кбит/сек
    Каналы : 2 канала
    Расположение каналов : Front: L R
    Частота : 48,0 КГц
    Битовая глубина : 16 бит
    Метод сжатия : С потерями
    Размер потока : 163 Мбайт (11%)
    Выравнивание : Разделение по промежуткам
    Продолжительность промежутка : 40 мс. (1,00 видеокадр)
    Время предзагрузки промежутка : 500 мс.
    Заголовок : Профессиональный (полное дублирование)

    Скриншоты

    Скачать .torrent

    Скачать торрент-файл бесплатно и на максимальной скорости!

    Как скачивать? · Что такое торрент? · Рейтинг и ограничения

    !ВНИМАНИЕ!
    Сайт не распространяет и не хранит электронные версии произведений, а занимается лишь лишь предоставлением доступа к создаваемому пользователями каталогу ссылок на торрент-файлы, которые содержат только списки хеш-сумм, убедительная просьба с жалобами обращаться напрямую к пользователю. Файлы для обмена на трекере предоставлены пользователями сайта, и администрация не несёт ответственности за их содержание. Просьба не заливать файлы, защищенные авторскими правами, а также файлы нелегального содержания!

    [Профиль] [ЛС]
    Показать сообщения:    
    Ответить на тему

    Текущее время: Сегодня, в 00:27

    Часовой пояс: GMT + 2



    Вы не можете начинать темы
    Вы не можете отвечать на сообщения
    Вы не можете редактировать свои сообщения
    Вы не можете удалять свои сообщения
    Вы не можете голосовать в опросах
    Вы не можете прикреплять файлы к сообщениям
    Вы не можете скачивать файлы