Register  ·  Log in
Forgot password?

  • Дьявол, которого ты знаешь / The Devil You Know (Джеймс Окли / James Oakley) [2013, США, триллер, детектив, WEBRip] VO (ViruseProject)

    Reply to topic
    Author Message


    Post 05-Jun-2014 16:32



    Дьявол, которого ты знаешь / The Devil You Know
    Год выпуска: 2013
    Страна: США
    Жанр: триллер, детектив
    Продолжительность: 01:11:45
    Перевод: Одноголосый закадровый ViruseProject
    Русские субтитры: нет
    Режиссёр: Джеймс Окли / James Oakley
    В ролях: Лена Олин, Розамунд Пайк, Дин Уинтерс, Молли Прайс, Берн Коэн и др.
    Описание: Бывшая кинозвезда Кэтрин Вэйл после таинственной смерти мужа отошла от кинобизнеса. Но вот спустя десять лет она решила вернуться на большой экран, чему активно противятся ее дочь, что пошла по ее стопам, и молодой муж-сценарист. Без того сложную ситуацию ухудшает послания таинственного незнакомца, угрожающего открыть миру темный секрет этой семьи.

    Закадровое озвучание и перевод: Роман Коточигов
    Постер: Алексей Трешской
    Сведение звука: viruse (Виталий Емельянов)
    Смотреть ТРЕЙЛЕР фильма на youtube
    смотреть СЕМПЛ озвучки на youtube
    скачать СЕМПЛ с multi-up
    Качество: WEBRip
    Формат: AVI
    Видео кодек: XviD
    Аудио кодек: MP3
    Видео: 640x360 (1.78:1), 23.976 fps, XviD build 50 ~1238 kbps avg, 0.22 bit/pixel
    Аудио: 48 kHz, MPEG Layer 3, 2 ch, ~192.00 kbps avg


    Complete name : D:\ОЗВУЧКА\РОМКА\The.Devil.You.Know.2013.ViruseProject.avi
    Format : AVI
    Format/Info : Audio Video Interleave
    File size : 739 MiB
    Duration : 1h 11mn
    Overall bit rate : 1 440 Kbps
    Writing application : VirtualDubMod (build 2540/release)
    Writing library : VirtualDubMod build 2540/release
    Video #0
    ID : 0
    Format : MPEG-4 Visual
    Format profile : Advanced Simple@L5
    Format settings, BVOP : 2
    Format settings, QPel : No
    Format settings, GMC : No warppoints
    Format settings, Matrix : Default (MPEG)
    Codec ID : XVID
    Codec ID/Hint : XviD
    Duration : 1h 11mn
    Bit rate : 1 238 Kbps
    Width : 640 pixels
    Height : 360 pixels
    Display aspect ratio : 16:9
    Frame rate : 23.976 fps
    Color space : YUV
    Chroma subsampling : 4:2:0
    Bit depth : 8 bits
    Scan type : Progressive
    Compression mode : Lossy
    Bits/(Pixel*Frame) : 0.224
    Stream size : 636 MiB (86%)
    Writing library : XviD 1.2.1 (UTC 2008-12-04)
    Audio #1
    ID : 1
    Format : MPEG Audio
    Format version : Version 1
    Format profile : Layer 3
    Mode : Joint stereo
    Codec ID : 55
    Codec ID/Hint : MP3
    Duration : 1h 11mn
    Bit rate mode : Constant
    Bit rate : 192 Kbps
    Channel count : 2 channels
    Sampling rate : 48.0 KHz
    Compression mode : Lossy
    Stream size : 98.5 MiB (13%)
    Alignment : Aligned on interleaves
    Interleave, duration : 42 ms (1.00 video frame)
    Interleave, preload duration : 504 ms


    Download .torrent

    Download free and at maximum speed!

    How to Download? · What is a torrent? · Ratings and Limitations

    The site does not extend and does not store electronic(digital) versions of products, and only gives access to a reference catalogue created by users on torrent-files which contain only lists of the hash-sums, the earnest entreaty, with complaints(abuse) to access directly to the user. Files for an exchange on tracker are given by users of a site, and the administration does not bear the responsibility for their maintenance. The request to not fill in the files protected by copyrights, and also files of the illegal maintenance!

    [Profile] [PM]
    Display posts from previous:    
    Reply to topic

    The time now is: Today 00:28

    All times are GMT + 3 Hours

    You cannot post new topics in this forum
    You cannot reply to topics in this forum
    You cannot edit your posts in this forum
    You cannot delete your posts in this forum
    You cannot vote in polls in this forum
    You cannot attach files in this forum
    You cannot download files in this forum