BitTorrentTracker PerecTracker.org
BitTorrentTracker PerecTracker.org
    
Регистрация  ·  Вход
 
 · 
Забыли пароль?

  • Дьявол, которого ты знаешь / The Devil You Know (Джеймс Окли / James Oakley) [2013, США, триллер, детектив, WEBRip] VO (ViruseProject)

    Ответить на тему
     
    Автор Сообщение

    Columb

    Создавать темы 05-Июн-2014 15:32

           

    [Цитировать]

    Дьявол, которого ты знаешь / The Devil You Know
    Год выпуска: 2013
    Страна: США
    Жанр: триллер, детектив
    Продолжительность: 01:11:45
    Перевод: Одноголосый закадровый ViruseProject
    Русские субтитры: нет
    Режиссёр: Джеймс Окли / James Oakley
    В ролях: Лена Олин, Розамунд Пайк, Дин Уинтерс, Молли Прайс, Берн Коэн и др.
    Описание: Бывшая кинозвезда Кэтрин Вэйл после таинственной смерти мужа отошла от кинобизнеса. Но вот спустя десять лет она решила вернуться на большой экран, чему активно противятся ее дочь, что пошла по ее стопам, и молодой муж-сценарист. Без того сложную ситуацию ухудшает послания таинственного незнакомца, угрожающего открыть миру темный секрет этой семьи.

    Закадровое озвучание и перевод: Роман Коточигов
    Постер: Алексей Трешской
    Сведение звука: viruse (Виталий Емельянов)
    Смотреть ТРЕЙЛЕР фильма на youtube
    смотреть СЕМПЛ озвучки на youtube
    скачать СЕМПЛ с multi-up
    Качество: WEBRip
    Формат: AVI
    Видео кодек: XviD
    Аудио кодек: MP3
    Видео: 640x360 (1.78:1), 23.976 fps, XviD build 50 ~1238 kbps avg, 0.22 bit/pixel
    Аудио: 48 kHz, MPEG Layer 3, 2 ch, ~192.00 kbps avg

    MediaInfo

    D:\ОЗВУЧКА\РОМКА\The.Devil.You.Know.2013.ViruseProject.avi
    General
    Complete name : D:\ОЗВУЧКА\РОМКА\The.Devil.You.Know.2013.ViruseProject.avi
    Format : AVI
    Format/Info : Audio Video Interleave
    File size : 739 MiB
    Duration : 1h 11mn
    Overall bit rate : 1 440 Kbps
    Writing application : VirtualDubMod 1.5.10.2 (build 2540/release)
    Writing library : VirtualDubMod build 2540/release
    Video #0
    ID : 0
    Format : MPEG-4 Visual
    Format profile : Advanced Simple@L5
    Format settings, BVOP : 2
    Format settings, QPel : No
    Format settings, GMC : No warppoints
    Format settings, Matrix : Default (MPEG)
    Codec ID : XVID
    Codec ID/Hint : XviD
    Duration : 1h 11mn
    Bit rate : 1 238 Kbps
    Width : 640 pixels
    Height : 360 pixels
    Display aspect ratio : 16:9
    Frame rate : 23.976 fps
    Color space : YUV
    Chroma subsampling : 4:2:0
    Bit depth : 8 bits
    Scan type : Progressive
    Compression mode : Lossy
    Bits/(Pixel*Frame) : 0.224
    Stream size : 636 MiB (86%)
    Writing library : XviD 1.2.1 (UTC 2008-12-04)
    Audio #1
    ID : 1
    Format : MPEG Audio
    Format version : Version 1
    Format profile : Layer 3
    Mode : Joint stereo
    Codec ID : 55
    Codec ID/Hint : MP3
    Duration : 1h 11mn
    Bit rate mode : Constant
    Bit rate : 192 Kbps
    Channel count : 2 channels
    Sampling rate : 48.0 KHz
    Compression mode : Lossy
    Stream size : 98.5 MiB (13%)
    Alignment : Aligned on interleaves
    Interleave, duration : 42 ms (1.00 video frame)
    Interleave, preload duration : 504 ms

    Скриншоты

    Скачать .torrent

    Скачать торрент-файл бесплатно и на максимальной скорости!

    Как скачивать? · Что такое торрент? · Рейтинг и ограничения

    !ВНИМАНИЕ!
    Сайт не распространяет и не хранит электронные версии произведений, а занимается лишь лишь предоставлением доступа к создаваемому пользователями каталогу ссылок на торрент-файлы, которые содержат только списки хеш-сумм, убедительная просьба с жалобами обращаться напрямую к пользователю. Файлы для обмена на трекере предоставлены пользователями сайта, и администрация не несёт ответственности за их содержание. Просьба не заливать файлы, защищенные авторскими правами, а также файлы нелегального содержания!

    [Профиль] [ЛС]
    Показать сообщения:    
    Ответить на тему

    Текущее время: Сегодня, в 06:10

    Часовой пояс: GMT + 2



    Вы не можете начинать темы
    Вы не можете отвечать на сообщения
    Вы не можете редактировать свои сообщения
    Вы не можете удалять свои сообщения
    Вы не можете голосовать в опросах
    Вы не можете прикреплять файлы к сообщениям
    Вы не можете скачивать файлы