BitTorrentTracker PerecTracker.org
BitTorrentTracker PerecTracker.org
    
Регистрация  ·  Вход
 
 · 
Забыли пароль?

  • Хищник 2 / Predator 2 (Стивен Хопкинс / Stephen Hopkins) [1990, США, ужасы, фантастика, боевик, HDRip] Dub (CEE) + Sub (3хRus)

    Ответить на тему
     
    Автор Сообщение

    Columb

    Создавать темы 05-Июн-2014 12:47

           

    [Цитировать]

    Хищник 2 / Predator 2
    «Безмолвный. Невидимый. Непобедимый. Приходит в город, чтобы утолить свою жажду убивать.»
    -Страна: США
    Жанр: ужасы, фантастика, боевик
    Год выпуска: 1990
    Продолжительность: 01:48:00
    Перевод: Профессиональный (дублированный) CEE
    Cубтитры: Russian (Forced), Russian (Full), Russian (comments of the Director) внешние*.srt
    Оригинальная аудиодорожка: нет-Режиссер:
    Стивен Хопкинс / Stephen Hopkins-В ролях:
    Кевин Питер Холл, Дэнни Гловер, Гэри Бьюзи, Рубен Бладес, Мария Кончита Алонсо, Билл Пэкстон, Роберт Дави, Адам Болдуин, Кент МакКорд, Мортон Дауни мл.-Описание:
    Харриган — крутой полицейский отдела по борьбе с наркотиками полиции Лос — Анджелеса. Ему поручено расследование серии убийств крупных криминальных авторитетов города. Все убийства совершены в извращенной форме и пахнут неприкрытым садизмом. После проведения экспертиз и расследований становится ясно, что убийство — дело рук существа, не имеющего ничего общего с человеком. Землю опять посетил межпланетный охотник, но ему придется столкнуться с существом еще более опасным, чем он сам — с человеком. Харриган выслеживает охотника, постепенно сам становясь охотником. Один на один, как настоящий воин, он ведет бескомпромиссную битву за сохранение чести и права человека не быть существом, на которое можно охотиться.-Сэмпл | КиноПоиск | IMDb-Качество видео: HDRip
    Формат видео: AVI
    Видео: 704x384 (1.83:1), 23.976 fps, XviD build 65 ~1472 kbps avg, 0.227 bit/pixel
    Аудио: 48.0 kHz, AC3 Dolby Digital, 3/2 (L,C,R,l,r) + LFE ch, ~448.00 kbps avg | DUB
    Размер: 1490.54 Mb (1/3 DVD-R)
    -

    MediaInfo

    Общее
    Полное имя : A:\Фильмы\Predator.2.1990.HDRip.XviD.1.46Gb.AC3.avi
    Формат : AVI
    Формат/Информация : Audio Video Interleave
    Размер файла : 1,46 Гбайт
    Продолжительность : 1 ч. 47 м.
    Общий поток : 1930 Кбит/сек
    Программа кодирования : VirtualDubMod 1.5.10.2 (build 2540/release)
    Библиотека кодирования : VirtualDubMod build 2540/release
    Видео
    Идентификатор : 0
    Формат : MPEG-4 Visual
    Профиль формата : Advanced Simple@L5
    Параметр BVOP формата : 1
    Параметр QPel формата : Нет
    Параметр GMC формата : Без точки перехода
    Параметр матрицы формата : Выборочная
    Идентификатор кодека : XVID
    Идентификатор кодека/Подсказка : XviD
    Продолжительность : 1 ч. 47 м.
    Битрейт : 1472 Кбит/сек
    Ширина : 704 пикселя
    Высота : 384 пикселя
    Соотношение сторон : 1,83:1
    Частота кадров : 23,976 кадра/сек
    Цветовое пространство : YUV
    Субдискретизация насыщенности : 4:2:0
    Битовая глубина : 8 бит
    Тип развёртки : Прогрессивная
    Метод сжатия : С потерями
    Бит/(Пиксели*Кадры) : 0.227
    Размер потока : 1,11 Гбайт (76%)
    Библиотека кодирования : XviD 65
    Аудио
    Идентификатор : 1
    Формат : AC-3
    Формат/Информация : Audio Coding 3
    Расширение режима : CM (complete main)
    Параметр Endianness формата : Big
    Идентификатор кодека : 2000
    Продолжительность : 1 ч. 47 м.
    Вид битрейта : Постоянный
    Битрейт : 448 Кбит/сек
    Каналы : 6 каналов
    Расположение каналов : Front: L C R, Side: L R, LFE
    Частота : 48,0 КГц
    Битовая глубина : 16 бит
    Метод сжатия : С потерями
    Размер потока : 346 Мбайт (23%)
    Выравнивание : Разделение по промежуткам
    Продолжительность промежутка : 42 мс. (1,00 видеокадр)
    Время предзагрузки промежутка : 500 мс.
    Заголовок: DUB

    Скриншот c названием фильма

    Скриншоты

    Скачать .torrent

    Скачать торрент-файл бесплатно и на максимальной скорости!

    Как скачивать? · Что такое торрент? · Рейтинг и ограничения

    !ВНИМАНИЕ!
    Сайт не распространяет и не хранит электронные версии произведений, а занимается лишь лишь предоставлением доступа к создаваемому пользователями каталогу ссылок на торрент-файлы, которые содержат только списки хеш-сумм, убедительная просьба с жалобами обращаться напрямую к пользователю. Файлы для обмена на трекере предоставлены пользователями сайта, и администрация не несёт ответственности за их содержание. Просьба не заливать файлы, защищенные авторскими правами, а также файлы нелегального содержания!

    [Профиль] [ЛС]
    Показать сообщения:    
    Ответить на тему

    Текущее время: Сегодня, в 02:36

    Часовой пояс: GMT + 2



    Вы не можете начинать темы
    Вы не можете отвечать на сообщения
    Вы не можете редактировать свои сообщения
    Вы не можете удалять свои сообщения
    Вы не можете голосовать в опросах
    Вы не можете прикреплять файлы к сообщениям
    Вы не можете скачивать файлы