BitTorrentTracker PerecTracker.org
BitTorrentTracker PerecTracker.org
    
Регистрация  ·  Вход
 
 · 
Забыли пароль?

  • Калинов Мост - Янкин день (Новосибирск 07.09.2013), Сашин день (Череповец 27.05.2014) [Acoustic Rock, DVD5 (custom)]

    Ответить на тему
     
    Автор Сообщение

    Columb

    Создавать темы 05-Июн-2014 12:44

           

    [Цитировать]

    Калинов Мост - Янкин день (Новосибирск 07.09.2013), Сашин день (Череповец 27.05.2014)
    Страна: Россия
    Жанр: Acoustic Rock
    Продолжительность: 49:22 + 37:47
    Описание:
    Янкин день (Новосибирск 07.09.2013) (расширенный видеоряд, звук с воздуха)
    1. Полоняне
    2. Иволге петь
    3. Надо было
    4. Под руки в степь (Янка)
    5. Как тебя любил
    6. Уходили из дома
    7. Лопнуло небо
    8. Дудки
    9. Девочка летом
    10. Родная
    Сашин день (Череповец 27.05.2014) (интернет-трансляция, звук с пульта)
    1. Полоняне
    2. Иволге петь
    3. Барселона
    4. Пусть звенят струны
    5. Ветка огненной омелы
    6. Дудки
    7. Спроси, звезда (А.Башлачёв)
    Меню и разбивка на главы по трекам: есть
    Качество : MultiCam
    Формат: DVD5 (custom)
    Видео: MPEG2 PAL, 720x576p, 16:9, 6000 kbps, 25 fps
    Аудио: AC3, 256 kbps, 48 kHz, 2.0 ch

    MediaInfo

    ОбщееПолное имя : D:\VideoWork\Калинов Мост - Янкин день (Новосибирск 07.09.2013), Сашин день (Череповец 27.05.2014) [DVD5]\VIDEO_TS\VTS_01_1.VOBФормат : MPEG-PSРазмер файла : 1024 МбайтПродолжительность : 22 м.Режим общего битрейта : ПеременныйОбщий поток : 6311 Кбит/сек
    ВидеоИдентификатор : 224 (0xE0)Формат : MPEG VideoВерсия формата : Version 2Профиль формата : Main@MainПараметр BVOP формата : ДаПараметр матрицы формата : ВыборочнаяПараметр GOP формата : M=3, N=15Продолжительность : 22 м.Вид битрейта : ПеременныйБитрейт : 5929 Кбит/секМаксимальный битрейт : 6000 Кбит/секШирина : 720 пикселейВысота : 576 пикселейСоотношение сторон : 16:9Частота кадров : 25,000 кадров/секСтандарт вещания : PALЦветовое пространство : YUVСубдискретизация насыщенности : 4:2:0Битовая глубина : 8 битТип развёртки : ПрогрессивнаяМетод сжатия : С потерямиБит/(Пиксели*Кадры) : 0.572TimeCode_FirstFrame : 00:00:00:00TimeCode_Source : Group of pictures headerРазмер потока : 962 Мбайт (94%)
    АудиоИдентификатор : 189 (0xBD)-128 (0x80)Формат : AC-3Формат/Информация : Audio Coding 3Расширение режима : CM (complete main)Параметр Endianness формата : BigРежим смешивания : DVD-VideoПродолжительность : 22 м.Вид битрейта : ПостоянныйБитрейт : 256 Кбит/секКаналы : 2 каналаРасположение каналов : Front: L RЧастота : 48,0 КГцБитовая глубина : 16 битМетод сжатия : С потерямиРазмер потока : 41,5 Мбайт (4%)

    Скриншоты меню (анаморф)

    Скриншоты (анаморф)


    Скачать .torrent

    Скачать торрент-файл бесплатно и на максимальной скорости!

    Как скачивать? · Что такое торрент? · Рейтинг и ограничения

    !ВНИМАНИЕ!
    Сайт не распространяет и не хранит электронные версии произведений, а занимается лишь лишь предоставлением доступа к создаваемому пользователями каталогу ссылок на торрент-файлы, которые содержат только списки хеш-сумм, убедительная просьба с жалобами обращаться напрямую к пользователю. Файлы для обмена на трекере предоставлены пользователями сайта, и администрация не несёт ответственности за их содержание. Просьба не заливать файлы, защищенные авторскими правами, а также файлы нелегального содержания!

    [Профиль] [ЛС]
    Показать сообщения:    
    Ответить на тему

    Текущее время: Сегодня, в 20:01

    Часовой пояс: GMT + 2



    Вы не можете начинать темы
    Вы не можете отвечать на сообщения
    Вы не можете редактировать свои сообщения
    Вы не можете удалять свои сообщения
    Вы не можете голосовать в опросах
    Вы не можете прикреплять файлы к сообщениям
    Вы не можете скачивать файлы