Register  ·  Log in
Forgot password?

  • Джо / Joe (Дэвид Гордон Грин / David Gordon Green) [2013, США, драма, криминал, HDRip] MVO (лицензия)

    Reply to topic
    Author Message


    Post 05-Jun-2014 13:36



    Джо / Joe
    Страна: США
    Жанр: драма, криминал
    Год выпуска: 2013
    Продолжительность: 01:57:44
    Перевод: Профессиональный (многоголосый закадровый) лицензия
    Cубтитры: нет
    Оригинальная аудиодорожка: нет
    Режиссер: Дэвид Гордон Грин / David Gordon Green
    В ролях: Николас Кейдж, Тай Шеридан, Гари Поултер, Ронни Джин Блевинс, Адриэн Мишлер, Брайан Мейс, Адж Уилсон МакФол, Сью Рок, Хезер Кафка
    Описание: В сонном городке на Миссисипи встретилось два одиноких человека. Юный Гари поставил крест на своем будущем, не зная как отвязаться от отца-алкоголика, бывший бандит Джо не желает вспоминать о прошлом. Неожиданно для самих себя они становятся друзьями.
    Качество видео: HDRip
    Формат видео: AVI
    Видео: Xvid 720x304 23.98fps 1 314 Kbps
    Аудио: Dolby AC3 48000Hz 6ch 448kbps


    Format : AVI
    Format/Info : Audio Video Interleave
    File size : 1.46 GiB
    Duration : 1h 57mn
    Overall bit rate : 1 771 Kbps
    Writing application : VirtualDubMod | || (build 2550/release)
    Writing library : VirtualDubMod build 2550/release
    ID : 0
    Format : MPEG-4 Visual
    Format profile : Advanced Simple@L5
    Format settings, BVOP : Yes
    Format settings, QPel : No
    Format settings, GMC : No warppoints
    Format settings, Matrix : Custom
    Codec ID : XVID
    Codec ID/Hint : XviD
    Duration : 1h 57mn
    Bit rate : 1 314 Kbps
    Width : 720 pixels
    Height : 304 pixels
    Display aspect ratio : 2.35:1
    Frame rate : 23.976 fps
    Resolution : 8 bits
    Colorimetry : 4:2:0
    Scan type : Progressive
    Bits/(Pixel*Frame) : 0.250
    Stream size : 1.08 GiB (74%)
    Writing library : XviD 1.2.1 (UTC 2008-12-04)
    ID : 1
    Format : AC-3
    Format/Info : Audio Coding 3
    Codec ID : 2000
    Duration : 1h 57mn
    Bit rate mode : Constant
    Bit rate : 448 Kbps
    Channel(s) : 6 channels
    Channel positions : Front: L C R, Surround: L R, LFE
    Sampling rate : 48.0 KHz
    Stream size : 377 MiB (25%)
    Alignment : Split accross interleaves
    Interleave, duration : 42 ms (1.00 video frame)
    Interleave, preload duration : 500 ms

    Скриншот c названием фильма


    Download .torrent

    Download free and at maximum speed!

    How to Download? · What is a torrent? · Ratings and Limitations

    The site does not extend and does not store electronic(digital) versions of products, and only gives access to a reference catalogue created by users on torrent-files which contain only lists of the hash-sums, the earnest entreaty, with complaints(abuse) to access directly to the user. Files for an exchange on tracker are given by users of a site, and the administration does not bear the responsibility for their maintenance. The request to not fill in the files protected by copyrights, and also files of the illegal maintenance!

    [Profile] [PM]
    Display posts from previous:    
    Reply to topic

    The time now is: Today 05:28

    All times are GMT + 3 Hours

    You cannot post new topics in this forum
    You cannot reply to topics in this forum
    You cannot edit your posts in this forum
    You cannot delete your posts in this forum
    You cannot vote in polls in this forum
    You cannot attach files in this forum
    You cannot download files in this forum