BitTorrentTracker PerecTracker.org
BitTorrentTracker PerecTracker.org
    
Регистрация  ·  Вход
 
 · 
Забыли пароль?

  • The Bad Plus feat. Joshua Redman (Reid Anderson, Ethan Iverson, David King) - Warsaw Summer Jazz Days 2012 [2012, Contemporary Jazz / Progressive Jazz / Post-Bop, DVB]

    Ответить на тему
     
    Автор Сообщение

    Columb

    Создавать темы 05-Июн-2014 12:30

           

    [Цитировать]

    The Bad Plus feat. Joshua Redman
    Warsaw Summer Jazz Days 2012
    -Страна: USA
    Жанр: Contemporary Jazz / Progressive Jazz / Post-Bop
    Продолжительность: 00:51:58
    Год выпуска: 2012
    Musicians:
    Joshua Redman - tenor sax
    The Bad Plus:
    Reid Anderson - bass
    Ethan Iverson - piano
    David King - drums
    Треклист:
    Track List:
    1. 2pm
    2. Who's He
    3. Prehensile Dream
    4. You Are
    5. 1979 Semi - Finalist
    Доп. информация:
    Warsaw Summer Jazz Days 2012, 12.07.2012, Soho Factory
    Joshua Redman Official Site
    Joshua Redman from Wikipedia, the free encyclopedia
    The Bad Plus Official Site
    ... фрагменты концерта можно посмотреть:
    Who's He и Prehensile Dream и You Are ...

    Качество: DVB (Digital Video Broadcasting)
    Контейнер: TS
    Видео кодек: MPEG2
    Аудио кодек: AC3
    Видео: 3 518 Kbps, 720*576 (16:9), at 25.000 fps, MPEG Video (PAL) (Version 2) (Main@Main) (Custo
    Аудио: Polish, 192 Kbps, 48.0 KHz, 2 channels, MPEG Audio (Version 1) (Layer 2)
    Аудио 2: qaa, 384 Kbps, 48.0 KHz, 16 bits, 2 channels, AC-3
    Источник: Digital Satellite > SkyStar HD2 (TechniSat) > ts > raw data to HDD > Cypheros TS-Doctor > VideoReDo TVSuite v4 (cut) > ts

    MediaInfo / BDInfo

    GeneralID : 1 (0x1)Complete name : C:\rutracker.org_mpg\The Bad Plus feat. Joshua Redman - 2012-07-12, Warsaw Summer Jazz Days.tsFormat : MPEG-TSFile size : 1.57 GiBDuration : 51mn 58sOverall bit rate mode : VariableOverall bit rate : 4 313 Kbps
    VideoID : 518 (0x206)Menu ID : 1 (0x1)Format : MPEG VideoFormat version : Version 2Format profile : Main@MainFormat settings, BVOP : YesFormat settings, Matrix : CustomFormat settings, GOP : M=4, N=12Codec ID : 2Duration : 51mn 58sBit rate mode : VariableBit rate : 3 518 KbpsMaximum bit rate : 10 000 KbpsWidth : 720 pixelsHeight : 576 pixelsDisplay aspect ratio : 16:9Frame rate : 25.000 fpsStandard : PALColor space : YUVChroma subsampling : 4:2:0Bit depth : 8 bitsScan type : InterlacedScan order : Top Field FirstCompression mode : LossyBits/(Pixel*Frame) : 0.339Time code of first frame : 00:00:00:00Time code source : Group of pictures headerStream size : 1.28 GiB (82%)
    Audio #1ID : 710 (0x2C6)Menu ID : 1 (0x1)Format : MPEG AudioFormat version : Version 1Format profile : Layer 2Codec ID : 3Duration : 51mn 58sBit rate mode : ConstantBit rate : 192 KbpsChannel(s) : 2 channelsSampling rate : 48.0 KHzCompression mode : LossyDelay relative to video : 16msStream size : 71.4 MiB (4%)Language : Polish
    Audio #2ID : 711 (0x2C7)Menu ID : 1 (0x1)Format : AC-3Format/Info : Audio Coding 3Mode extension : CM (complete main)Format settings, Endianness : BigCodec ID : 6Duration : 51mn 58sBit rate mode : ConstantBit rate : 384 KbpsChannel(s) : 2 channelsChannel positions : Front: L RSampling rate : 48.0 KHzBit depth : 16 bitsCompression mode : LossyDelay relative to video : 21msStream size : 143 MiB (9%)Language : qaa

    Скриншоты

    Скачать .torrent

    Скачать торрент-файл бесплатно и на максимальной скорости!

    Как скачивать? · Что такое торрент? · Рейтинг и ограничения

    !ВНИМАНИЕ!
    Сайт не распространяет и не хранит электронные версии произведений, а занимается лишь лишь предоставлением доступа к создаваемому пользователями каталогу ссылок на торрент-файлы, которые содержат только списки хеш-сумм, убедительная просьба с жалобами обращаться напрямую к пользователю. Файлы для обмена на трекере предоставлены пользователями сайта, и администрация не несёт ответственности за их содержание. Просьба не заливать файлы, защищенные авторскими правами, а также файлы нелегального содержания!

    [Профиль] [ЛС]
    Показать сообщения:    
    Ответить на тему

    Текущее время: Сегодня, в 14:46

    Часовой пояс: GMT + 2



    Вы не можете начинать темы
    Вы не можете отвечать на сообщения
    Вы не можете редактировать свои сообщения
    Вы не можете удалять свои сообщения
    Вы не можете голосовать в опросах
    Вы не можете прикреплять файлы к сообщениям
    Вы не можете скачивать файлы