BitTorrentTracker PerecTracker.org
BitTorrentTracker PerecTracker.org
    
Регистрация  ·  Вход
 
 · 
Забыли пароль?

  • ПМС-Коп / PMS Cop (Брайон Блейки / Bryon Blakey) [2014, США, ужасы, WEB-DLRip] DVO (DaeadSno & den904)

    Ответить на тему
     
    Автор Сообщение

    Columb

    Создавать темы 05-Июн-2014 12:05

           

    [Цитировать]

    ПМС-Коп / PMS Cop
    Страна: США
    Жанр: ужасы
    Год выпуска: 2014
    Продолжительность: 01:31:13
    Перевод: Любительский (двухголосый закадровый) DaeadSno & den904
    Cубтитры: нет
    Оригинальная аудиодорожка: нет
    Режиссер: Брайон Блейки / Bryon Blakey
    В ролях: Синди Минс, Хизер Холл, Лей Ренникс, Мики Стоун, Илэйн Дженкинс, Меган Дихарт, Дэвид Джи. Ли, Рэйчел, Эдлоув, Кристин Мавербо, Джэйсон Кэри
    Описание: Мэри Коллинс - молодая девушка-полицейская, которая страдает от ПМС и проявляет излишнюю жестокость при арестах. Начальство даже ее отправило к психиатру, где ей прописали таблетки, которые все только ухудшили...
    Внимание!!! В фильме присутствует ненормативная лексика!!!!
    Сэмпл: http://multi-up.com/978377
    Качество видео: WEB-DLRip
    Формат видео: AVI
    Видео: Xvid 720x400 24.00fps 2 042 Kbps
    Аудио: Dolby AC3 48000Hz stereo 192kbps

    MediaInfo

    Format : AVI
    Format/Info : Audio Video Interleave
    File size : 1.43 GiB
    Duration : 1h 31mn
    Overall bit rate : 2 243 Kbps
    Writing application : VirtualDubMod 1.5.10.3 | www.virtualdub-fr.org || (build 2550/release)
    Writing library : VirtualDubMod build 2550/release
    Video
    ID : 0
    Format : MPEG-4 Visual
    Format profile : Advanced Simple@L5
    Format settings, BVOP : Yes
    Format settings, QPel : No
    Format settings, GMC : No warppoints
    Format settings, Matrix : Custom
    Codec ID : XVID
    Codec ID/Hint : XviD
    Duration : 1h 31mn
    Bit rate : 2 042 Kbps
    Width : 720 pixels
    Height : 400 pixels
    Display aspect ratio : 16:9
    Frame rate : 24.000 fps
    Resolution : 8 bits
    Colorimetry : 4:2:0
    Scan type : Progressive
    Bits/(Pixel*Frame) : 0.295
    Stream size : 1.30 GiB (91%)
    Writing library : XviD 73
    Audio
    ID : 1
    Format : AC-3
    Format/Info : Audio Coding 3
    Codec ID : 2000
    Duration : 1h 31mn
    Bit rate mode : Constant
    Bit rate : 192 Kbps
    Channel(s) : 2 channels
    Channel positions : L R
    Sampling rate : 48.0 KHz
    Stream size : 125 MiB (9%)
    Alignment : Split accross interleaves
    Interleave, duration : 42 ms (1.00 video frame)
    Interleave, preload duration : 500 ms

    Скриншот c названием фильма

    Скриншоты

    Скачать .torrent

    Скачать торрент-файл бесплатно и на максимальной скорости!

    Как скачивать? · Что такое торрент? · Рейтинг и ограничения

    !ВНИМАНИЕ!
    Сайт не распространяет и не хранит электронные версии произведений, а занимается лишь лишь предоставлением доступа к создаваемому пользователями каталогу ссылок на торрент-файлы, которые содержат только списки хеш-сумм, убедительная просьба с жалобами обращаться напрямую к пользователю. Файлы для обмена на трекере предоставлены пользователями сайта, и администрация не несёт ответственности за их содержание. Просьба не заливать файлы, защищенные авторскими правами, а также файлы нелегального содержания!

    [Профиль] [ЛС]
    Показать сообщения:    
    Ответить на тему

    Текущее время: Сегодня, в 17:45

    Часовой пояс: GMT + 2



    Вы не можете начинать темы
    Вы не можете отвечать на сообщения
    Вы не можете редактировать свои сообщения
    Вы не можете удалять свои сообщения
    Вы не можете голосовать в опросах
    Вы не можете прикреплять файлы к сообщениям
    Вы не можете скачивать файлы