Register  ·  Log in
Forgot password?

  • ПМС-Коп / PMS Cop (Брайон Блейки / Bryon Blakey) [2014, США, ужасы, WEB-DLRip] DVO (DaeadSno & den904)

    Reply to topic
    Author Message


    Post 05-Jun-2014 13:05



    ПМС-Коп / PMS Cop
    Страна: США
    Жанр: ужасы
    Год выпуска: 2014
    Продолжительность: 01:31:13
    Перевод: Любительский (двухголосый закадровый) DaeadSno & den904
    Cубтитры: нет
    Оригинальная аудиодорожка: нет
    Режиссер: Брайон Блейки / Bryon Blakey
    В ролях: Синди Минс, Хизер Холл, Лей Ренникс, Мики Стоун, Илэйн Дженкинс, Меган Дихарт, Дэвид Джи. Ли, Рэйчел, Эдлоув, Кристин Мавербо, Джэйсон Кэри
    Описание: Мэри Коллинс - молодая девушка-полицейская, которая страдает от ПМС и проявляет излишнюю жестокость при арестах. Начальство даже ее отправило к психиатру, где ей прописали таблетки, которые все только ухудшили...
    Внимание!!! В фильме присутствует ненормативная лексика!!!!
    Качество видео: WEB-DLRip
    Формат видео: AVI
    Видео: Xvid 720x400 24.00fps 2 042 Kbps
    Аудио: Dolby AC3 48000Hz stereo 192kbps


    Format : AVI
    Format/Info : Audio Video Interleave
    File size : 1.43 GiB
    Duration : 1h 31mn
    Overall bit rate : 2 243 Kbps
    Writing application : VirtualDubMod | || (build 2550/release)
    Writing library : VirtualDubMod build 2550/release
    ID : 0
    Format : MPEG-4 Visual
    Format profile : Advanced Simple@L5
    Format settings, BVOP : Yes
    Format settings, QPel : No
    Format settings, GMC : No warppoints
    Format settings, Matrix : Custom
    Codec ID : XVID
    Codec ID/Hint : XviD
    Duration : 1h 31mn
    Bit rate : 2 042 Kbps
    Width : 720 pixels
    Height : 400 pixels
    Display aspect ratio : 16:9
    Frame rate : 24.000 fps
    Resolution : 8 bits
    Colorimetry : 4:2:0
    Scan type : Progressive
    Bits/(Pixel*Frame) : 0.295
    Stream size : 1.30 GiB (91%)
    Writing library : XviD 73
    ID : 1
    Format : AC-3
    Format/Info : Audio Coding 3
    Codec ID : 2000
    Duration : 1h 31mn
    Bit rate mode : Constant
    Bit rate : 192 Kbps
    Channel(s) : 2 channels
    Channel positions : L R
    Sampling rate : 48.0 KHz
    Stream size : 125 MiB (9%)
    Alignment : Split accross interleaves
    Interleave, duration : 42 ms (1.00 video frame)
    Interleave, preload duration : 500 ms

    Скриншот c названием фильма


    Download .torrent

    Download free and at maximum speed!

    How to Download? · What is a torrent? · Ratings and Limitations

    The site does not extend and does not store electronic(digital) versions of products, and only gives access to a reference catalogue created by users on torrent-files which contain only lists of the hash-sums, the earnest entreaty, with complaints(abuse) to access directly to the user. Files for an exchange on tracker are given by users of a site, and the administration does not bear the responsibility for their maintenance. The request to not fill in the files protected by copyrights, and also files of the illegal maintenance!

    [Profile] [PM]
    Display posts from previous:    
    Reply to topic

    The time now is: Today 10:08

    All times are GMT + 3 Hours

    You cannot post new topics in this forum
    You cannot reply to topics in this forum
    You cannot edit your posts in this forum
    You cannot delete your posts in this forum
    You cannot vote in polls in this forum
    You cannot attach files in this forum
    You cannot download files in this forum