BitTorrentTracker PerecTracker.org
BitTorrentTracker PerecTracker.org
    
Регистрация  ·  Вход
 
 · 
Забыли пароль?

  • Семейка миссис Браун / Mrs. Brown's Boys / Сезон: 1 / Серии: 1-6 из 6 (Бен Келлет) [2011, комедия, HDTVRip] Original + Rus Subs (leicestershire)

    Ответить на тему
     
    Автор Сообщение

    Columb

    Создавать темы 05-Июн-2014 10:56

           

    [Цитировать]

    Семейка миссис Браун / Mrs. Brown's Boys
    Год выпуска: 2011
    Страна: Ирландия
    Жанр: комедия
    Продолжительность: ~ 30 мин.
    Перевод: Субтитры
    Автор перевода: leicestershire
    Английские субтитры: есть-Режиссёр: Бен Келлет
    В ролях: Брендан О’Кэрролл, Дженнифер Гибни, Дермот О’Нилл, Пэдди Хулихан, Эйлиш О’Кэрролл, Аманда Вудс, Рори Кауэн, Фиона О’Кэрролл, Дэнни О’Кэрролл, Пэт Шилдс и др.
    Описание: Сериал расскажет об Агнес Браун, многодетной матери, которая настолько любит своих детей, что постоянно вмешивается в их личную жизнь и дает свои советы даже тогда, когда дети в них совсем не нуждаются!-Список серий:
  • The Mammy / Мамуля
  • Mammy's Secret / Мамулина тайна
  • Mammy's Merchandise / Мамулина покупка
  • Mammy Rides Again / Мамуля на девичнике
  • Mammy of the Groom / Мамуля жениха
  • Mammy's Miracle / Мамуля-чудотворец-Сэмпл: Скачать
    Качество: HDTVRip
    Формат: AVI
    Видео кодек: XviD
    Аудио кодек: MP3
    Видео: 720 x 416, 25 fps, 1560 kbps, 0.208 bit/pixel
    Аудио: 48.0 KHz, 2 ch, ~111kbps

    MediaInfo

    General
    Complete name : E:\TV Series\Great Britain\Mrs Brown's Boys S01 (HDTVRip)\Mrs. Brown's Boys [01x01] Mammy.avi
    Format : AVI
    Format/Info : Audio Video Interleave
    File size : 350 MiB
    Duration : 29mn 3s
    Overall bit rate mode : Variable
    Overall bit rate : 1 684 Kbps
    Writing application : VirtualDubMod 1.5.4.1 (build 2178/release)
    Writing library : VirtualDubMod build 2178/release
    Video
    ID : 0
    Format : MPEG-4 Visual
    Format profile : Advanced Simple@L5
    Format settings, BVOP : 1
    Format settings, QPel : No
    Format settings, GMC : No warppoints
    Format settings, Matrix : Custom
    Codec ID : XVID
    Codec ID/Hint : XviD
    Duration : 29mn 3s
    Bit rate : 1 560 Kbps
    Width : 720 pixels
    Height : 416 pixels
    Display aspect ratio : 1.731
    Frame rate : 25.000 fps
    Color space : YUV
    Chroma subsampling : 4:2:0
    Bit depth : 8 bits
    Scan type : Progressive
    Compression mode : Lossy
    Bits/(Pixel*Frame) : 0.208
    Stream size : 324 MiB (93%)
    Writing library : XviD 1.2.1 (UTC 2008-12-04)
    Audio
    ID : 1
    Format : MPEG Audio
    Format version : Version 1
    Format profile : Layer 3
    Mode : Joint stereo
    Mode extension : MS Stereo
    Codec ID : 55
    Codec ID/Hint : MP3
    Duration : 29mn 3s
    Bit rate mode : Variable
    Bit rate : 111 Kbps
    Nominal bit rate : 128 Kbps
    Channel count : 2 channels
    Sampling rate : 48.0 KHz
    Compression mode : Lossy
    Stream size : 23.1 MiB (7%)
    Alignment : Aligned on interleaves
    Interleave, duration : 24 ms (0.60 video frame)
    Interleave, preload duration : 591 ms
    Writing library : LAME3.98r
    Encoding settings : -m j -V 4 -q 2 -lowpass 17 --abr 128

    Скриншоты

    Внимание! Перевод любительский и не содержит ненормативной лексики!
    Скачать .torrent

    Скачать торрент-файл бесплатно и на максимальной скорости!

    Как скачивать? · Что такое торрент? · Рейтинг и ограничения

    !ВНИМАНИЕ!
    Сайт не распространяет и не хранит электронные версии произведений, а занимается лишь лишь предоставлением доступа к создаваемому пользователями каталогу ссылок на торрент-файлы, которые содержат только списки хеш-сумм, убедительная просьба с жалобами обращаться напрямую к пользователю. Файлы для обмена на трекере предоставлены пользователями сайта, и администрация не несёт ответственности за их содержание. Просьба не заливать файлы, защищенные авторскими правами, а также файлы нелегального содержания!

  • [Профиль] [ЛС]
    Показать сообщения:    
    Ответить на тему

    Текущее время: Сегодня, в 06:05

    Часовой пояс: GMT + 2



    Вы не можете начинать темы
    Вы не можете отвечать на сообщения
    Вы не можете редактировать свои сообщения
    Вы не можете удалять свои сообщения
    Вы не можете голосовать в опросах
    Вы не можете прикреплять файлы к сообщениям
    Вы не можете скачивать файлы