BitTorrentTracker PerecTracker.org
BitTorrentTracker PerecTracker.org
    
Регистрация  ·  Вход
 
 · 
Забыли пароль?

  • Смерть среди айсбергов / Кит - Убийца / Orca: The Killer Whale (Майкл Андерсон) [1977, США, Драма, триллер, BDRip 1080p] Dub (СССР) + DVO (Инис) + AVO (Горчаков) + Sub Rus

    Ответить на тему
     
    Автор Сообщение

    Columb

    Создавать темы 05-Июн-2014 10:49

           

    [Цитировать]

    -Смерть среди айсбергов / Кит - Убийца / Orca: The Killer Whale--Страна: США
    Жанр: Драма, триллер
    Год выпуска: 1977
    Продолжительность: 01:32:17-Перевод: Профессиональный (дублированный) СССР
    Перевод 2: Профессиональный (двухголосый закадровый) Инис
    Перевод 3: Авторский (одноголосый закадровый) Горчаков
    Cубтитры: русские-Режиссер: Майкл Андерсон-В ролях: Ричард Харрис, Шарлотта Рэмплинг, Уилл Сэмпсон, Бо Дерек, Кинен Уинн, Роберт Кэрредин, Скотт Уолкер, Питер Хутен, Уэйн Хэффли-Описание: Капитан Нолан никогда не задумывался о том, какой непоправимый вред он наносит живой природе. Он просто отлично выполнял свою работу. Он делал то, что у него получалось лучше всего, - он убивал. Выходил в море и убивал китов. Однажды он вытащил из воды самку-китиху. Она погибла, а вместе с ней погиб и ее не успевший родиться детеныш.
    Трагедия произошла на глазах кита-самца. А «орки» однолюбы по своей природе, также как и лебеди, также как и многие живые существа...С этой минуты кит начал мстить людям. Людям, близких Нолану, но к капитану Нолану у кита был свой особый счет. Когда от рыбацкого поселка мало что осталось, обоим - и Нолану, и киту, - стало ясно: они должны сойтись в поединке, который для кого-то из них окажется последним...-Тип релиза: BDRip 1080p
    Контейнер: MKV
    Видео: MPEG-4 AVC Video 10.1 Mbps / 1920x816 / 23,976 fps / 16:9 / High Profile 4.1
    Аудио 1: Russian DD 2.0 48 kHz 192 kbps – дубляж, СССР;
    Аудио 2: Russian DTS 2.0 / 48 kHz / 1509 kbps / 16-bit – закадровый (двухголосый, Инис);
    Аудио 3: Russian DTS 2.0 / 48 kHz / 1509 kbps / 16-bit – закадровый (авторский Горчаков);
    Формат субтитров: softsub (SRT)-Релиз от: Релиз группа: -Сэмпл / ImDB / Кинопоиск-

    Интересно

    ► Оригинальное название фильма «Orca» — латинское название косатки (Orcinus orca).
    ► В 1982 году был организован широкий прокат картины в СССР, во время которого её просмотрели 33 миллиона зрителей.
    ► «Orca» (то есть косатка, оригинальное название фильма) — так называлась шхуна, на которой преследовали акулу в фильме «Челюсти» 1975 года.
    ► Для создания фильма были использованы дрессированные косатки из океанариума в Сан-Франциско, участие которых придало картине исключительную зрелищность. Но помимо этого были созданы модели животных из искусственного каучука, которые выглядели столь натурально, что защитники природы даже сперва пытались препятствовать движению машин, перевозивших муляжи. Акула, фигурировавшая в начале фильма, была отловлена известным рыбаком Роном Тейлором.
    ► Ричард Харрис отказался от участия каскадёров и сам выполнял все трюки. Это несколько раз чуть не стоило ему жизни.
    ► Съёмки проводились на Ньюфаундленде во время рыболовецкого сезона. Сцены в самых северных водах Лабрадора снимались в специально созданных декорациях на Мальте.

    MediaInfo

    x264 [info]: frame I:1271 Avg QP:18.20 size:140045
    x264 [info]: frame P:102395 Avg QP:21.02 size: 56716
    x264 [info]: frame B:29091 Avg QP:21.95 size: 29573
    Формат : Matroska
    Версия формата : Version 4 / Version 2
    Размер файла : 8,58 Гбайт
    Продолжительность : 1 ч. 32 м.
    Общий поток : 13,3 Мбит/сек
    Название фильма : CMEGRoup
    Дата кодирования : UTC 2014-06-04 16:29:46
    Программа кодирования : mkvmerge v6.9.1 ('Blue Panther') 64bit built on Apr 18 2014 18:23:38
    Библиотека кодирования : libebml v1.3.0 + libmatroska v1.4.1
    Видео
    Идентификатор : 1
    Формат : AVC
    Формат/Информация : Advanced Video Codec
    Профиль формата : High@L4.1
    Параметр CABAC формата : Да
    Параметр ReFrames формата : 4 кадра
    Идентификатор кодека : V_MPEG4/ISO/AVC
    Продолжительность : 1 ч. 32 м.
    Битрейт : 10,1 Мбит/сек
    Ширина : 1920 пикселей
    Высота : 816 пикселей
    Соотношение сторон : 2,35:1
    Режим частоты кадров : Постоянный
    Частота кадров : 23,976 кадра/сек
    Цветовое пространство : YUV
    Субдискретизация насыщенности : 4:2:0
    Битовая глубина : 8 бит
    Тип развёртки : Прогрессивная
    Бит/(Пиксели*Кадры) : 0.269
    Размер потока : 6,34 Гбайт (74%)
    Библиотека кодирования : x264 core 142 r2431 ac76440
    Настройки программы : cabac=1 / ref=4 / deblock=1:-3:-2 / analyse=0x3:0x113 / me=umh / subme=11 / psy=1 / psy_rd=1.00:0.00 / mixed_ref=1 / me_range=32 / chroma_me=1 / trellis=2 / 8x8dct=1 / cqm=0 / deadzone=21,11 / fast_pskip=1 / chroma_qp_offset=-2 / threads=12 / lookahead_threads=1 / sliced_threads=0 / nr=0 / decimate=1 / interlaced=0 / bluray_compat=0 / constrained_intra=0 / bframes=5 / b_pyramid=2 / b_adapt=1 / b_bias=0 / direct=2 / weightb=1 / open_gop=0 / weightp=2 / keyint=240 / keyint_min=23 / scenecut=40 / intra_refresh=0 / rc_lookahead=40 / rc=2pass / mbtree=1 / bitrate=10100 / ratetol=1.0 / qcomp=0.60 / qpmin=0 / qpmax=69 / qpstep=4 / cplxblur=20.0 / qblur=0.5 / vbv_maxrate=62500 / vbv_bufsize=78125 / nal_hrd=none / filler=0 / ip_ratio=1.40 / aq=1:1.00 / zones=129804,132756,q=40
    Язык : English
    Default : Да
    Forced : Нет
    Аудио #1
    Идентификатор : 2
    Формат : AC-3
    Формат/Информация : Audio Coding 3
    Расширение режима : CM (complete main)
    Параметр Endianness формата : Big
    Идентификатор кодека : A_AC3
    Продолжительность : 1 ч. 32 м.
    Вид битрейта : Постоянный
    Битрейт : 192 Кбит/сек
    Каналы : 2 канала
    Расположение каналов : Front: L R
    Частота : 48,0 КГц
    Битовая глубина : 16 бит
    Метод сжатия : С потерями
    Размер потока : 127 Мбайт (1%)
    Заголовок : DUB
    Язык : Russian
    Default : Да
    Forced : Нет
    Аудио #2
    Идентификатор : 3
    Формат : DTS
    Формат/Информация : Digital Theater Systems
    Режим : 16
    Параметр Endianness формата : Big
    Идентификатор кодека : A_DTS
    Продолжительность : 1 ч. 32 м.
    Вид битрейта : Постоянный
    Битрейт : 1509 Кбит/сек
    Каналы : 2 канала
    Расположение каналов : Front: L R
    Частота : 48,0 КГц
    Битовая глубина : 24 бит
    Метод сжатия : С потерями
    Размер потока : 996 Мбайт (11%)
    Заголовок : DVO
    Язык : Russian
    Default : Нет
    Forced : Нет
    Аудио #3
    Идентификатор : 4
    Формат : DTS
    Формат/Информация : Digital Theater Systems
    Режим : 16
    Параметр Endianness формата : Big
    Идентификатор кодека : A_DTS
    Продолжительность : 1 ч. 32 м.
    Вид битрейта : Постоянный
    Битрейт : 1509 Кбит/сек
    Каналы : 2 канала
    Расположение каналов : Front: L R
    Частота : 48,0 КГц
    Битовая глубина : 24 бит
    Метод сжатия : С потерями
    Размер потока : 996 Мбайт (11%)
    Заголовок : AVO
    Язык : Russian
    Default : Нет
    Forced : Нет
    Текст
    Идентификатор : 5
    Формат : UTF-8
    Идентификатор кодека : S_TEXT/UTF8
    Идентификатор кодека/Информация : UTF-8 Plain Text
    Язык : Russian
    Default : Нет
    Forced : Нет
    Меню
    00:00:00.000 : en:00:00:00.000
    00:03:11.316 : en:00:03:11.316
    00:08:53.574 : en:00:08:53.574
    00:14:31.537 : en:00:14:31.537
    00:21:05.013 : en:00:21:05.013
    00:27:45.914 : en:00:27:45.914
    00:33:38.558 : en:00:33:38.558
    00:42:08.734 : en:00:42:08.734
    00:49:19.790 : en:00:49:19.790
    00:56:04.444 : en:00:56:04.444
    01:02:44.093 : en:01:02:44.093
    01:09:42.678 : en:01:09:42.678
    01:15:10.839 : en:01:15:10.839
    01:20:12.098 : en:01:20:12.098
    01:24:42.744 : en:01:24:42.744
    01:28:52.827 : en:01:28:52.827

    Скриншоты

    Скачать .torrent

    Скачать торрент-файл бесплатно и на максимальной скорости!

    Как скачивать? · Что такое торрент? · Рейтинг и ограничения

    !ВНИМАНИЕ!
    Сайт не распространяет и не хранит электронные версии произведений, а занимается лишь лишь предоставлением доступа к создаваемому пользователями каталогу ссылок на торрент-файлы, которые содержат только списки хеш-сумм, убедительная просьба с жалобами обращаться напрямую к пользователю. Файлы для обмена на трекере предоставлены пользователями сайта, и администрация не несёт ответственности за их содержание. Просьба не заливать файлы, защищенные авторскими правами, а также файлы нелегального содержания!

    [Профиль] [ЛС]
    Показать сообщения:    
    Ответить на тему

    Текущее время: Сегодня, в 16:49

    Часовой пояс: GMT + 2



    Вы не можете начинать темы
    Вы не можете отвечать на сообщения
    Вы не можете редактировать свои сообщения
    Вы не можете удалять свои сообщения
    Вы не можете голосовать в опросах
    Вы не можете прикреплять файлы к сообщениям
    Вы не можете скачивать файлы