Register  ·  Log in
Forgot password?

  • Jake Clemons • You Must Be Crazy (The Tonight Show With Jay Leno) [2014, Soft Rock, HDTV 1080i]

    Reply to topic
    Author Message


    Post 05-Jun-2014 09:53



    Jake Clemons
    You Must Be Crazy
    (The Tonight Show With Jay Leno)

    Жанр: Soft Rock
    Продолжительность: 00:03:58
    Год выпуска: January 8, 2014
    Качество: HDTV 1080i
    Контейнер: TS
    Видео кодек: MPEG2
    Аудио кодек: AC3
    Видео: MPEG2 Video 1920x1080 29.97fps 15.4Mbps
    Аудио: Dolby AC3 48000Hz 6ch 384kbps

    Доп. информация

    Jake Clemons is a singer-songwriter, an American musician and since 2012 is best known for being the saxophonist for Bruce Springsteen and the E Street Band

    Отчёт MediaInfo / BDInfo

    GeneralID : 1 (0x1)Complete name : E:\Jake Clemons - You Must Be Crazy (The Tonight Show With Jay Leno).tsFormat : MPEG-TSFile size : 471 MiBDuration : 3mn 57sOverall bit rate mode : VariableOverall bit rate : 16.6 MbpsLaw rating : TV-14
    VideoID : 544 (0x220)Menu ID : 1 (0x1)Format : MPEG VideoFormat version : Version 2Format profile : Main@HighFormat settings, BVOP : NoFormat settings, Matrix : CustomFormat settings, GOP : VariableCodec ID : 2Duration : 3mn 57sBit rate mode : VariableBit rate : 15.4 MbpsMaximum bit rate : 24.0 MbpsWidth : 1 920 pixelsHeight : 1 080 pixelsDisplay aspect ratio : 16:9Frame rate : 29.970 fpsColor space : YUVChroma subsampling : 4:2:0Bit depth : 8 bitsScan type : InterlacedScan order : Top Field FirstCompression mode : LossyBits/(Pixel*Frame) : 0.248Time code of first frame : 00:00:00;00Time code source : Group of pictures headerStream size : 436 MiB (93%)
    AudioID : 545 (0x221)Menu ID : 1 (0x1)Format : AC-3Format/Info : Audio Coding 3Mode extension : CM (complete main)Format settings, Endianness : BigCodec ID : 129Duration : 3mn 57sBit rate mode : ConstantBit rate : 384 KbpsChannel(s) : 6 channelsChannel positions : Front: L C R, Side: L R, LFESampling rate : 48.0 KHzBit depth : 16 bitsCompression mode : LossyDelay relative to video : 23msStream size : 10.9 MiB (2%)Language : English


    Download .torrent

    Download free and at maximum speed!

    How to Download? · What is a torrent? · Ratings and Limitations

    The site does not extend and does not store electronic(digital) versions of products, and only gives access to a reference catalogue created by users on torrent-files which contain only lists of the hash-sums, the earnest entreaty, with complaints(abuse) to access directly to the user. Files for an exchange on tracker are given by users of a site, and the administration does not bear the responsibility for their maintenance. The request to not fill in the files protected by copyrights, and also files of the illegal maintenance!

    [Profile] [PM]
    Display posts from previous:    
    Reply to topic

    The time now is: Today 20:33

    All times are GMT + 3 Hours

    You cannot post new topics in this forum
    You cannot reply to topics in this forum
    You cannot edit your posts in this forum
    You cannot delete your posts in this forum
    You cannot vote in polls in this forum
    You cannot attach files in this forum
    You cannot download files in this forum