Register  ·  Log in
Forgot password?

  • Акула-призрак / Ghost Shark (Грифф Ферст / Griff Furst) [2013, США, ужасы, фантастика, HDRip] MVO

    Reply to topic
    Author Message


    Post 05-Jun-2014 09:18



    Акула-призрак / Ghost Shark
    Страна: США
    Жанр: ужасы, фантастика
    Год выпуска: 2013
    Продолжительность: 01:27:04
    Перевод: Профессиональный (многоголосый закадровый)
    Cубтитры: нет
    Режиссер: Грифф Ферст / Griff Furst
    В ролях: Роберт Абердин, Джейми Бон, Eliot Brasseaux, Эми Брассетт, Челси Брюленд, Слоун Коу, Ким Коллинз, Дэйв Рэндольф-Мэйем Дэвис, Mark Haya, Брук Харринг
    Описание: Ава, ее младшая сестра Сесилия и друг Блейз становятся свидетелями вторжения призрака акулы, но власти отказываются им верить. Воспользовавшись поддержкой хранителя маяка по имени Финч, герои фильма открывают для себя, что спектральная акула может охотиться буквально везде, где есть вода, и что темное прошлое города скрывает улики, которые помогут им победить ее.
    Качество видео: HDRip
    Формат видео: AVI
    Видео:XVID, 2046 kb/s, 720x400, 23,976 кадра/сек
    Аудио: AC3, 192 kb/s (2 ch), 48,0 КГц


    Complete name : I:\Акула-призрак\Akyla.prizrak.2013.P.HDRip.1400Mb.avi
    Format : AVI
    Format/Info : Audio Video Interleave
    File size : 1.37 GiB
    Duration : 1h 27mn
    Overall bit rate : 2 248 Kbps
    Writing application : VirtualDubMod (build 2540/release)
    Writing library : VirtualDubMod build 2540/release
    Video #0
    ID : 0
    Format : MPEG-4 Visual
    Format profile : Advanced Simple@L5
    Format settings, BVOP : 2
    Format settings, QPel : No
    Format settings, GMC : No warppoints
    Format settings, Matrix : Default (MPEG)
    Codec ID : XVID
    Codec ID/Hint : XviD
    Duration : 1h 27mn
    Bit rate : 2 047 Kbps
    Width : 720 pixels
    Height : 400 pixels
    Display aspect ratio : 16:9
    Frame rate : 23.976 fps
    Color space : YUV
    Chroma subsampling : 4:2:0
    Bit depth : 8 bits
    Scan type : Progressive
    Compression mode : Lossy
    Bits/(Pixel*Frame) : 0.296
    Stream size : 1.24 GiB (91%)
    Writing library : XviD 1.2.1 (UTC 2008-12-04)
    Audio #1
    ID : 1
    Format : AC-3
    Format/Info : Audio Coding 3
    Mode extension : CM (complete main)
    Format settings, Endianness : Big
    Codec ID : 2000
    Duration : 1h 27mn
    Bit rate mode : Constant
    Bit rate : 192 Kbps
    Channel count : 2 channels
    Channel positions : Front: L R
    Sampling rate : 48.0 KHz
    Bit depth : 16 bits
    Compression mode : Lossy
    Stream size : 120 MiB (9%)
    Alignment : Split accross interleaves
    Interleave, duration : 42 ms (1.00 video frame)
    Interleave, preload duration : 500 ms

    Скриншот c названием фильма


    Download .torrent

    Download free and at maximum speed!

    How to Download? · What is a torrent? · Ratings and Limitations

    The site does not extend and does not store electronic(digital) versions of products, and only gives access to a reference catalogue created by users on torrent-files which contain only lists of the hash-sums, the earnest entreaty, with complaints(abuse) to access directly to the user. Files for an exchange on tracker are given by users of a site, and the administration does not bear the responsibility for their maintenance. The request to not fill in the files protected by copyrights, and also files of the illegal maintenance!

    [Profile] [PM]
    Display posts from previous:    
    Reply to topic

    The time now is: Today 00:13

    All times are GMT + 3 Hours

    You cannot post new topics in this forum
    You cannot reply to topics in this forum
    You cannot edit your posts in this forum
    You cannot delete your posts in this forum
    You cannot vote in polls in this forum
    You cannot attach files in this forum
    You cannot download files in this forum