BitTorrentTracker PerecTracker.org
BitTorrentTracker PerecTracker.org
    
Регистрация  ·  Вход
 
 · 
Забыли пароль?

  • Акула-призрак / Ghost Shark (Грифф Ферст / Griff Furst) [2013, США, ужасы, фантастика, HDRip] MVO

    Ответить на тему
     
    Автор Сообщение

    Columb

    Создавать темы 05-Июн-2014 08:18

           

    [Цитировать]

    Акула-призрак / Ghost Shark
    Страна: США
    Жанр: ужасы, фантастика
    Год выпуска: 2013
    Продолжительность: 01:27:04
    Перевод: Профессиональный (многоголосый закадровый)
    Cубтитры: нет
    Режиссер: Грифф Ферст / Griff Furst
    В ролях: Роберт Абердин, Джейми Бон, Eliot Brasseaux, Эми Брассетт, Челси Брюленд, Слоун Коу, Ким Коллинз, Дэйв Рэндольф-Мэйем Дэвис, Mark Haya, Брук Харринг
    Описание: Ава, ее младшая сестра Сесилия и друг Блейз становятся свидетелями вторжения призрака акулы, но власти отказываются им верить. Воспользовавшись поддержкой хранителя маяка по имени Финч, герои фильма открывают для себя, что спектральная акула может охотиться буквально везде, где есть вода, и что темное прошлое города скрывает улики, которые помогут им победить ее.
    Сэмпл: http://multi-up.com/978334
    Качество видео: HDRip
    Формат видео: AVI
    Видео:XVID, 2046 kb/s, 720x400, 23,976 кадра/сек
    Аудио: AC3, 192 kb/s (2 ch), 48,0 КГц

    MediaInfo

    I:\Акула-призрак\Akyla.prizrak.2013.P.HDRip.1400Mb.avi
    General
    Complete name : I:\Акула-призрак\Akyla.prizrak.2013.P.HDRip.1400Mb.avi
    Format : AVI
    Format/Info : Audio Video Interleave
    File size : 1.37 GiB
    Duration : 1h 27mn
    Overall bit rate : 2 248 Kbps
    Writing application : VirtualDubMod 1.5.10.2 (build 2540/release)
    Writing library : VirtualDubMod build 2540/release
    Video #0
    ID : 0
    Format : MPEG-4 Visual
    Format profile : Advanced Simple@L5
    Format settings, BVOP : 2
    Format settings, QPel : No
    Format settings, GMC : No warppoints
    Format settings, Matrix : Default (MPEG)
    Codec ID : XVID
    Codec ID/Hint : XviD
    Duration : 1h 27mn
    Bit rate : 2 047 Kbps
    Width : 720 pixels
    Height : 400 pixels
    Display aspect ratio : 16:9
    Frame rate : 23.976 fps
    Color space : YUV
    Chroma subsampling : 4:2:0
    Bit depth : 8 bits
    Scan type : Progressive
    Compression mode : Lossy
    Bits/(Pixel*Frame) : 0.296
    Stream size : 1.24 GiB (91%)
    Writing library : XviD 1.2.1 (UTC 2008-12-04)
    Audio #1
    ID : 1
    Format : AC-3
    Format/Info : Audio Coding 3
    Mode extension : CM (complete main)
    Format settings, Endianness : Big
    Codec ID : 2000
    Duration : 1h 27mn
    Bit rate mode : Constant
    Bit rate : 192 Kbps
    Channel count : 2 channels
    Channel positions : Front: L R
    Sampling rate : 48.0 KHz
    Bit depth : 16 bits
    Compression mode : Lossy
    Stream size : 120 MiB (9%)
    Alignment : Split accross interleaves
    Interleave, duration : 42 ms (1.00 video frame)
    Interleave, preload duration : 500 ms

    Скриншот c названием фильма

    Скриншоты

    Скачать .torrent

    Скачать торрент-файл бесплатно и на максимальной скорости!

    Как скачивать? · Что такое торрент? · Рейтинг и ограничения

    !ВНИМАНИЕ!
    Сайт не распространяет и не хранит электронные версии произведений, а занимается лишь лишь предоставлением доступа к создаваемому пользователями каталогу ссылок на торрент-файлы, которые содержат только списки хеш-сумм, убедительная просьба с жалобами обращаться напрямую к пользователю. Файлы для обмена на трекере предоставлены пользователями сайта, и администрация не несёт ответственности за их содержание. Просьба не заливать файлы, защищенные авторскими правами, а также файлы нелегального содержания!

    [Профиль] [ЛС]
    Показать сообщения:    
    Ответить на тему

    Текущее время: Сегодня, в 13:41

    Часовой пояс: GMT + 2



    Вы не можете начинать темы
    Вы не можете отвечать на сообщения
    Вы не можете редактировать свои сообщения
    Вы не можете удалять свои сообщения
    Вы не можете голосовать в опросах
    Вы не можете прикреплять файлы к сообщениям
    Вы не можете скачивать файлы