BitTorrentTracker PerecTracker.org
BitTorrentTracker PerecTracker.org
    
Регистрация  ·  Вход
 
 · 
Забыли пароль?

  • Полицейская история 2013 / Police story / Jing cha gu shi 2013 (2013) BDRip-AVC от MediaClub | L2, A

    Ответить на тему
     
    Автор Сообщение

    Columb

    Создавать темы 04-Июн-2014 18:34

           

    [Цитировать]

    Полицейская история 2013 / Police story (Jing cha gu shi 2013)-Страна: Китай, Гонконг, China Vision Group, Wanda Media Co.
    Жанр: Боевик, триллер, драма, криминал
    Год выпуска: 2013
    Продолжительность: 01:50:07
    Перевод: Любительский двухголосый, авторский одноголосый
    Режиссер: Дин Шэн
    В ролях: Джеки Чан, Лю Е, Тянь Цзин, Бо Хуан, Юй Жун Гуан, Александр Байли, Макс Хуан, Джеймс Лоджа, Андреас Нгуйен-Описание:
    История начинается с того, что посетители паба оказываются взятыми в заложники. Среди посетителей есть офицер полиции Вэнь Чжун и его непослушная дочь Мяомяо. Человек, удерживающий всех в заложниках — владелец паба, который таким образом пытается добиться освобождения из тюрьмы одного преступника…-
    Релиз: | -Качество видео: BDRip-AVC [BluRay.REMUX.DTS-HD.MA.5.1]
    Формат видео: MKV
    Видео: MPEG-4 AVC, 2541 Кбит/с, 1024x436, 23.976 кадр/с
    Аудио#1: Русский (AC3, 2 ch, 224 Кбит/с) / Любительский двухголосый [GREENTEA]
    Аудио #2: AC3, 48.0 KHz, 6 ch, 448 Kbps / Одноголосый закадровый [С. Визгунов]
    Аудио #3: AC3, 48.0 KHz, 6 ch, 448 Kbps / Одноголосый закадровый [А. Дольский]
    Аудио#4: Китайский (AC3, 6 ch, 448 Кбит/с)
    Субтитры: Отсутствуют
    Навигация по главам: Присутствуют-

    MI

    General
    Unique ID : 216475694592513342424359110588023815493 (0xA2DBB3C6504553C6BFB8E031A29DBD45)
    Complete name : D:MY RIPSFilmPolice.Story.2013.x264.BDRip.AVC.MediaClub.mkv
    Format : Matroska
    Format version : Version 4 / Version 2
    File size : 3.16 GiB
    Duration : 1h 50mn
    Overall bit rate : 4 109 Kbps
    Movie name : Rip by Die_Roten [Mediaclub.tv]
    Encoded date : UTC 2014-06-03 20:03:38
    Writing application : mkvmerge v6.8.0 ('Theme for Great Cities') 64bit built on Mar 2 2014 21:34:26
    Writing library : libebml v1.3.0 + libmatroska v1.4.1
    Video
    ID : 1
    Format : AVC
    Format/Info : Advanced Video Codec
    Format profile : High@L4.1
    Format settings, CABAC : Yes
    Format settings, ReFrames : 10 frames
    Codec ID : V_MPEG4/ISO/AVC
    Duration : 1h 50mn
    Bit rate : 2 541 Kbps
    Width : 1 024 pixels
    Height : 436 pixels
    Display aspect ratio : 2.35:1
    Frame rate mode : Constant
    Frame rate : 24.000 fps
    Color space : YUV
    Chroma subsampling : 4:2:0
    Bit depth : 8 bits
    Scan type : Progressive
    Bits/(Pixel*Frame) : 0.237
    Stream size : 1.89 GiB (60%)
    Title : Police.Story.2013.x264.BDRip.AVC.MediaClub[Rip.by.Die.Roten]
    Writing library : x264 core 138 r2358 9e941d1
    Encoding settings : cabac=1 / ref=10 / deblock=1:-3:-3 / analyse=0x3:0x113 / me=umh / subme=10 / psy=1 / psy_rd=1.00:0.10 / mixed_ref=1 / me_range=48 / chroma_me=1 / trellis=2 / 8x8dct=1 / cqm=0 / deadzone=21,11 / fast_pskip=0 / chroma_qp_offset=-3 / threads=6 / lookahead_threads=1 / sliced_threads=0 / nr=0 / decimate=0 / interlaced=0 / bluray_compat=0 / constrained_intra=0 / bframes=6 / b_pyramid=2 / b_adapt=2 / b_bias=0 / direct=3 / weightb=1 / open_gop=0 / weightp=2 / keyint=240 / keyint_min=22 / scenecut=40 / intra_refresh=0 / rc_lookahead=40 / rc=2pass / mbtree=0 / bitrate=2541 / ratetol=1.0 / qcomp=0.60 / qpmin=10 / qpmax=51 / qpstep=4 / cplxblur=20.0 / qblur=0.5 / vbv_maxrate=62500 / vbv_bufsize=78125 / nal_hrd=none / ip_ratio=1.40 / pb_ratio=1.30 / aq=1:1.00
    Language : English
    Default : Yes
    Forced : No
    Audio #1
    ID : 2
    Format : AC-3
    Format/Info : Audio Coding 3
    Mode extension : CM (complete main)
    Format settings, Endianness : Big
    Codec ID : A_AC3
    Duration : 1h 50mn
    Bit rate mode : Constant
    Bit rate : 224 Kbps
    Channel count : 2 channels
    Channel positions : Front: L R
    Sampling rate : 48.0 KHz
    Bit depth : 16 bits
    Compression mode : Lossy
    Stream size : 176 MiB (5%)
    Title : RUS | L DVO (GREENTEA)
    Language : Russian
    Default : Yes
    Forced : Yes
    Audio #2
    ID : 3
    Format : AC-3
    Format/Info : Audio Coding 3
    Mode extension : CM (complete main)
    Format settings, Endianness : Big
    Codec ID : A_AC3
    Duration : 1h 50mn
    Bit rate mode : Constant
    Bit rate : 448 Kbps
    Channel count : 6 channels
    Channel positions : Front: L C R, Side: L R, LFE
    Sampling rate : 48.0 KHz
    Bit depth : 16 bits
    Compression mode : Lossy
    Stream size : 353 MiB (11%)
    Title : RUS | A VO (S.Vizgunov)
    Language : Russian
    Default : No
    Forced : No
    Audio #3
    ID : 4
    Format : AC-3
    Format/Info : Audio Coding 3
    Mode extension : CM (complete main)
    Format settings, Endianness : Big
    Codec ID : A_AC3
    Duration : 1h 50mn
    Bit rate mode : Constant
    Bit rate : 448 Kbps
    Channel count : 6 channels
    Channel positions : Front: L C R, Side: L R, LFE
    Sampling rate : 48.0 KHz
    Bit depth : 16 bits
    Compression mode : Lossy
    Stream size : 353 MiB (11%)
    Title : RUS | A VO (A.Dolskii)
    Language : Russian
    Default : No
    Forced : No
    Audio #4
    ID : 5
    Format : AC-3
    Format/Info : Audio Coding 3
    Mode extension : CM (complete main)
    Format settings, Endianness : Big
    Codec ID : A_AC3
    Duration : 1h 50mn
    Bit rate mode : Constant
    Bit rate : 448 Kbps
    Channel count : 6 channels
    Channel positions : Front: L C R, Side: L R, LFE
    Sampling rate : 48.0 KHz
    Bit depth : 16 bits
    Compression mode : Lossy
    Stream size : 353 MiB (11%)
    Title : Chinese
    Language : Chinese
    Default : No
    Forced : No
    Menu
    00:00:00.000 : zh:Chapter 01
    00:05:00.000 : zh:Chapter 02
    00:10:00.000 : zh:Chapter 03
    00:15:00.000 : zh:Chapter 04
    00:20:00.000 : zh:Chapter 05
    00:25:00.000 : zh:Chapter 06
    00:30:00.000 : zh:Chapter 07
    00:35:00.000 : zh:Chapter 08
    00:40:00.000 : zh:Chapter 09
    00:45:00.000 : zh:Chapter 10
    00:50:00.000 : zh:Chapter 11
    00:55:00.000 : zh:Chapter 12
    01:00:00.000 : zh:Chapter 13

    Скриншоты

    Скачать .torrent

    Скачать торрент-файл бесплатно и на максимальной скорости!

    Как скачивать? · Что такое торрент? · Рейтинг и ограничения

    !ВНИМАНИЕ!
    Сайт не распространяет и не хранит электронные версии произведений, а занимается лишь лишь предоставлением доступа к создаваемому пользователями каталогу ссылок на торрент-файлы, которые содержат только списки хеш-сумм, убедительная просьба с жалобами обращаться напрямую к пользователю. Файлы для обмена на трекере предоставлены пользователями сайта, и администрация не несёт ответственности за их содержание. Просьба не заливать файлы, защищенные авторскими правами, а также файлы нелегального содержания!

    [Профиль] [ЛС]
    Показать сообщения:    
    Ответить на тему

    Текущее время: Сегодня, в 02:41

    Часовой пояс: GMT + 2



    Вы не можете начинать темы
    Вы не можете отвечать на сообщения
    Вы не можете редактировать свои сообщения
    Вы не можете удалять свои сообщения
    Вы не можете голосовать в опросах
    Вы не можете прикреплять файлы к сообщениям
    Вы не можете скачивать файлы