BitTorrentTracker PerecTracker.org
BitTorrentTracker PerecTracker.org
    
Регистрация  ·  Вход
 
 · 
Забыли пароль?

  • День насилия / A Day of Violence (Даррен Уорд / Darren Ward) [2010, Великобритания, триллер, HDRip] VO (Xixidok)

    Ответить на тему
     
    Автор Сообщение

    Columb

    Создавать темы 04-Июн-2014 09:48

           

    [Цитировать]

    День насилия / A Day of Violence
    Страна: Великобритания
    Жанр: триллер
    Год выпуска: 2010
    Продолжительность: 01:31:15
    Перевод: Одноголосый закадровый Xixidok
    Cубтитры: нет
    Режиссер: Даррен Уорд / Darren Ward
    В ролях: Джованни Ломбардо Радице, Ник Ренделл, Кристофер Фош, Виктор Д. Торн, Питер Рник, Стив Хемфрис, Хелена Мартин, Тина Барнс, Форбс КБ, Пит Морган
    Описание: Молодой крепкий мужчина по имени Митчелл Паркер работает вышибалой в коллекторском агентстве, попросту он пашет торпедой в ОПГ. В один момент он находит 100000 фунтов стерлингов, лежащие в диване одного из тех, к кому его послал босс. Митчелл просто забирает деньги себе, а братва объявляет на него охоту...
    Сэмпл: http://multi-up.com/977929
    Качество видео: HDRip
    Формат видео: AVI
    Видео: Xvid, 720 x 400, ~1682 kbps, 25,000 кадров/сек
    Аудио: AC-3, 6 ch, 448 kbps, 48,0 КГц

    MediaInfo

    I:\День насилия\Denj nasiliya 2010 HDRip.avi
    General
    Complete name : I:\День насилия\Denj nasiliya 2010 HDRip.avi
    Format : AVI
    Format/Info : Audio Video Interleave
    Format profile : OpenDML
    File size : 1.37 GiB
    Duration : 1h 31mn
    Overall bit rate : 2 143 Kbps
    Writing application : Lavf51.12.1
    Video #0
    ID : 0
    Format : MPEG-4 Visual
    Format profile : Simple@L1
    Format settings, BVOP : No
    Format settings, QPel : No
    Format settings, GMC : No warppoints
    Format settings, Matrix : Default (H.263)
    Codec ID : FMP4
    Duration : 1h 31mn
    Bit rate : 1 682 Kbps
    Width : 720 pixels
    Height : 400 pixels
    Display aspect ratio : 16:9
    Frame rate : 25.000 fps
    Color space : YUV
    Chroma subsampling : 4:2:0
    Bit depth : 8 bits
    Scan type : Progressive
    Compression mode : Lossy
    Bits/(Pixel*Frame) : 0.234
    Stream size : 1.07 GiB (79%)
    Writing library : Lavc51.40.4
    Audio #1
    ID : 1
    Format : AC-3
    Format/Info : Audio Coding 3
    Mode extension : CM (complete main)
    Format settings, Endianness : Big
    Codec ID : 2000
    Duration : 1h 31mn
    Bit rate mode : Constant
    Bit rate : 448 Kbps
    Channel count : 6 channels
    Channel positions : Front: L C R, Side: L R, LFE
    Sampling rate : 48.0 KHz
    Bit depth : 16 bits
    Compression mode : Lossy
    Stream size : 292 MiB (21%)
    Alignment : Aligned on interleaves
    Interleave, duration : 32 ms (0.80 video frame)
    Interleave, preload duration : 32 ms

    Скриншот c названием фильма

    Скриншоты

    Скачать .torrent

    Скачать торрент-файл бесплатно и на максимальной скорости!

    Как скачивать? · Что такое торрент? · Рейтинг и ограничения

    !ВНИМАНИЕ!
    Сайт не распространяет и не хранит электронные версии произведений, а занимается лишь лишь предоставлением доступа к создаваемому пользователями каталогу ссылок на торрент-файлы, которые содержат только списки хеш-сумм, убедительная просьба с жалобами обращаться напрямую к пользователю. Файлы для обмена на трекере предоставлены пользователями сайта, и администрация не несёт ответственности за их содержание. Просьба не заливать файлы, защищенные авторскими правами, а также файлы нелегального содержания!

    [Профиль] [ЛС]
    Показать сообщения:    
    Ответить на тему

    Текущее время: Сегодня, в 16:35

    Часовой пояс: GMT + 2



    Вы не можете начинать темы
    Вы не можете отвечать на сообщения
    Вы не можете редактировать свои сообщения
    Вы не можете удалять свои сообщения
    Вы не можете голосовать в опросах
    Вы не можете прикреплять файлы к сообщениям
    Вы не можете скачивать файлы