Register  ·  Log in
Forgot password?

  • День насилия / A Day of Violence (Даррен Уорд / Darren Ward) [2010, Великобритания, триллер, HDRip] VO (Xixidok)

    Reply to topic
    Author Message


    Post 04-Jun-2014 10:48



    День насилия / A Day of Violence
    Страна: Великобритания
    Жанр: триллер
    Год выпуска: 2010
    Продолжительность: 01:31:15
    Перевод: Одноголосый закадровый Xixidok
    Cубтитры: нет
    Режиссер: Даррен Уорд / Darren Ward
    В ролях: Джованни Ломбардо Радице, Ник Ренделл, Кристофер Фош, Виктор Д. Торн, Питер Рник, Стив Хемфрис, Хелена Мартин, Тина Барнс, Форбс КБ, Пит Морган
    Описание: Молодой крепкий мужчина по имени Митчелл Паркер работает вышибалой в коллекторском агентстве, попросту он пашет торпедой в ОПГ. В один момент он находит 100000 фунтов стерлингов, лежащие в диване одного из тех, к кому его послал босс. Митчелл просто забирает деньги себе, а братва объявляет на него охоту...
    Качество видео: HDRip
    Формат видео: AVI
    Видео: Xvid, 720 x 400, ~1682 kbps, 25,000 кадров/сек
    Аудио: AC-3, 6 ch, 448 kbps, 48,0 КГц


    I:\День насилия\Denj nasiliya 2010 HDRip.avi
    Complete name : I:\День насилия\Denj nasiliya 2010 HDRip.avi
    Format : AVI
    Format/Info : Audio Video Interleave
    Format profile : OpenDML
    File size : 1.37 GiB
    Duration : 1h 31mn
    Overall bit rate : 2 143 Kbps
    Writing application : Lavf51.12.1
    Video #0
    ID : 0
    Format : MPEG-4 Visual
    Format profile : Simple@L1
    Format settings, BVOP : No
    Format settings, QPel : No
    Format settings, GMC : No warppoints
    Format settings, Matrix : Default (H.263)
    Codec ID : FMP4
    Duration : 1h 31mn
    Bit rate : 1 682 Kbps
    Width : 720 pixels
    Height : 400 pixels
    Display aspect ratio : 16:9
    Frame rate : 25.000 fps
    Color space : YUV
    Chroma subsampling : 4:2:0
    Bit depth : 8 bits
    Scan type : Progressive
    Compression mode : Lossy
    Bits/(Pixel*Frame) : 0.234
    Stream size : 1.07 GiB (79%)
    Writing library : Lavc51.40.4
    Audio #1
    ID : 1
    Format : AC-3
    Format/Info : Audio Coding 3
    Mode extension : CM (complete main)
    Format settings, Endianness : Big
    Codec ID : 2000
    Duration : 1h 31mn
    Bit rate mode : Constant
    Bit rate : 448 Kbps
    Channel count : 6 channels
    Channel positions : Front: L C R, Side: L R, LFE
    Sampling rate : 48.0 KHz
    Bit depth : 16 bits
    Compression mode : Lossy
    Stream size : 292 MiB (21%)
    Alignment : Aligned on interleaves
    Interleave, duration : 32 ms (0.80 video frame)
    Interleave, preload duration : 32 ms

    Скриншот c названием фильма


    Download .torrent

    Download free and at maximum speed!

    How to Download? · What is a torrent? · Ratings and Limitations

    The site does not extend and does not store electronic(digital) versions of products, and only gives access to a reference catalogue created by users on torrent-files which contain only lists of the hash-sums, the earnest entreaty, with complaints(abuse) to access directly to the user. Files for an exchange on tracker are given by users of a site, and the administration does not bear the responsibility for their maintenance. The request to not fill in the files protected by copyrights, and also files of the illegal maintenance!

    [Profile] [PM]
    Display posts from previous:    
    Reply to topic

    The time now is: Today 21:04

    All times are GMT + 3 Hours

    You cannot post new topics in this forum
    You cannot reply to topics in this forum
    You cannot edit your posts in this forum
    You cannot delete your posts in this forum
    You cannot vote in polls in this forum
    You cannot attach files in this forum
    You cannot download files in this forum