BitTorrentTracker PerecTracker.org
BitTorrentTracker PerecTracker.org
    
Регистрация  ·  Вход
 
 · 
Забыли пароль?

  • Святая Роза / St. Roz (Грегори Шеппард / Gregory Sheppard) [2010, Канада, комедия, драма, семейный, SATRip] DVO (НТВ+)

    Ответить на тему
     
    Автор Сообщение

    Columb

    Создавать темы 04-Июн-2014 09:33

           

    [Цитировать]

    Святая Роза / St. Roz
    Страна: Канада
    Студия: Lamport-Sheppard Entertainment
    Жанр: комедия, драма, семейный
    Год выпуска: 2010
    Продолжительность: 01:14:53
    Перевод: Профессиональный (двухголосый закадровый) НТВ+
    Cубтитры: нет
    Оригинальная аудиодорожка: нет
    Режиссер: Грегори Шеппард / Gregory Sheppard
    В ролях: Рэйчел Уилсон, Виктория Сноу, Михаэль Лампорт, Джонатан Хиггинс, Мишель Нолден, Сара Аллен, Тим Розон, Джейн Иствуд, Дэвид Фокс, Тамара Бернье
    Описание: Единственное, что омрачает жизнь Минни Барр, владелицы чрезвычайно прибыльного бизнеса, связанного с похудением, это избыточный вес ее дочери Джуди. Но однажды в маленькой церкви на окраине города происходит невероятное: одна девушка обнаруживает, что худеет на фунт каждый раз, когда ставит долларовую свечку перед недавно установленной статуей. Церковь тут же битком заполняют женщины, и одна из них Джуди…
    II Сэмпл II IMDB II
    Качество видео: SATRip
    Формат видео: AVI
    Видео: Xvid 704x400 (16:9) 25.0fps Bit rate 1171Kbps b/p 0.166
    Аудио: AC3 48.0 KHz 2ch. 192kbps rus

    MediaInfo

    Общее
    Полное имя : E:\torrent\St. Roz.2009.Satrip.avi
    Формат : AVI
    Формат/Информация : Audio Video Interleave
    Размер файла : 735 Мбайт
    Продолжительность : 1 ч. 14 м.
    Общий поток : 1373 Кбит/сек
    Программа кодирования : VirtualDubMod 1.5.10.3 | www.virtualdub-fr.org || (build 2550/release)
    Библиотека кодирования : VirtualDubMod build 2550/release
    Видео
    Идентификатор : 0
    Формат : MPEG-4 Visual
    Профиль формата : Advanced Simple@L5
    Параметр BVOP формата : 2
    Параметр QPel формата : Нет
    Параметр GMC формата : Без точки перехода
    Параметр матрицы формата : Default (H.263)
    Идентификатор кодека : XVID
    Идентификатор кодека/Подсказка : XviD
    Продолжительность : 1 ч. 14 м.
    Битрейт : 1171 Кбит/сек
    Ширина : 704 пикселя
    Высота : 400 пикселей
    Соотношение сторон : 16:9
    Частота кадров : 25,000 кадров/сек
    Цветовое пространство : YUV
    Субдискретизация насыщенности : 4:2:0
    Битовая глубина : 8 бит
    Тип развёртки : Прогрессивная
    Метод сжатия : С потерями
    Бит/(Пиксели*Кадры) : 0.166
    Размер потока : 627 Мбайт (85%)
    Библиотека кодирования : XviD 1.2.1 (UTC 2008-12-04)
    Аудио
    Идентификатор : 1
    Формат : AC-3
    Формат/Информация : Audio Coding 3
    Расширение режима : CM (complete main)
    Параметр Endianness формата : Big
    Идентификатор кодека : 2000
    Продолжительность : 1 ч. 14 м.
    Вид битрейта : Постоянный
    Битрейт : 192 Кбит/сек
    Каналы : 2 канала
    Расположение каналов : Front: L R
    Частота : 48,0 КГц
    Битовая глубина : 16 бит
    Метод сжатия : С потерями
    Размер потока : 103 Мбайт (14%)
    Выравнивание : Разделение по промежуткам
    Продолжительность промежутка : 40 мс. (1,00 видеокадр)
    Время предзагрузки промежутка : 500 мс.

    Скриншот c названием фильма

    Скриншоты

    Скачать .torrent

    Скачать торрент-файл бесплатно и на максимальной скорости!

    Как скачивать? · Что такое торрент? · Рейтинг и ограничения

    !ВНИМАНИЕ!
    Сайт не распространяет и не хранит электронные версии произведений, а занимается лишь лишь предоставлением доступа к создаваемому пользователями каталогу ссылок на торрент-файлы, которые содержат только списки хеш-сумм, убедительная просьба с жалобами обращаться напрямую к пользователю. Файлы для обмена на трекере предоставлены пользователями сайта, и администрация не несёт ответственности за их содержание. Просьба не заливать файлы, защищенные авторскими правами, а также файлы нелегального содержания!

    [Профиль] [ЛС]
    Показать сообщения:    
    Ответить на тему

    Текущее время: Сегодня, в 20:04

    Часовой пояс: GMT + 2



    Вы не можете начинать темы
    Вы не можете отвечать на сообщения
    Вы не можете редактировать свои сообщения
    Вы не можете удалять свои сообщения
    Вы не можете голосовать в опросах
    Вы не можете прикреплять файлы к сообщениям
    Вы не можете скачивать файлы