BitTorrentTracker PerecTracker.org
BitTorrentTracker PerecTracker.org
    
Регистрация  ·  Вход
 
 · 
Забыли пароль?

  • Moutin Reunion Quartet - Jazz In Marciac 2010 [2010, contemporary, post-bop, HDTV 1080р]

    Ответить на тему
     
    Автор Сообщение

    Columb

    Создавать темы 04-Июн-2014 08:22

           

    [Цитировать]

    Moutin Reunion Quartet - Jazz In Marciac 2010
    Жанр: contemporary, post-bop
    Продолжительность: 00:49:03
    Год выпуска: 2010
    Описание:
    Moutin Reunion Quartet - Jazz In Marciac 2010
    Recorded 07 august 2010
    Rick Margitza - saxophone
    Pierre De Bethman - piano
    Francois Moutin - bass
    Lous Moutin - drums
    Доп. информация:
    = Mr. N.R. =
    = Blessed and Cursed =
    = Depths Light =
    = Momentum =
    = The Speech =
    Качество: HDTV 1080р
    Контейнер: MP4
    Видео кодек: H.264
    Аудио кодек: AAC
    Видео: 1920x1080 (16:9), 25.00 fps, AVC, 10.9 Мбит, 0.209 bits/pixel
    Аудио: 48.0 KHz, AAC-LC, 2 ch, stereo, 128-384 Kbps VBR

    Отчёт MediaInfo / BDInfo

    Полное имя : I:\MEZZO\Moutin Reunion Quartet - JIM 2010\Moutin Reunion Quartet - Jazz In Marciac 2010.mp4Формат : MPEG-4Профиль формата : Base Media / Version 2Идентификатор кодека : mp42Размер файла : 4,04 Гбайт Продолжительность : 49 м.Режим общего битрейта : Переменный Общий поток : 11,8 Мбит/сек Дата кодирования : UTC 2014-04-21 07:36:47Дата пометки : UTC 2014-04-21 07:36:47Видео Идентификатор : 2Формат : AVCФормат/Информация : Advanced Video CodecПрофиль формата : Main@L4.0Параметр CABAC формата : Да Параметр ReFrames формата : 2 кадра Параметр GOP формата : M=3, N=30Идентификатор кодека : avc1Идентификатор кодека/Информация : Advanced Video CodingПродолжительность : 49 м.Продолжительность оригинала : 49 м.Вид битрейта : Переменный Битрейт : 10,9 Мбит/сек Максимальный битрейт : 12,0 Мбит/сек Ширина : 1920 пикселей Высота : 1088 пикселей Высота оригинала : 1080 пикселей Соотношение сторон : 16:9Соотношение сторон в оригинале : 16:9Режим частоты кадров : Постоянный Частота кадров : 25,000 кадров/сек Частота кадров в оригинале : 12,500 кадров/сек Цветовое пространство : YUVСубдискретизация насыщенности : 4:2:0Битовая глубина : 8 бит Тип развёртки : Прогрессивная Бит/(Пиксели*Кадры) : 0.209Размер потока : 3,75 Гбайт (93%)Размер потока оригинала : 3,91 Гбайт (97%)Язык : EnglishДата кодирования : UTC 2014-04-21 07:36:47Дата пометки : UTC 2014-04-21 07:36:47Аудио Идентификатор : 1Формат : AACФормат/Информация : Advanced Audio CodecПрофиль формата : LCИдентификатор кодека : 40Продолжительность : 49 м.Продолжительность оригинала : 49 м.Вид битрейта : Постоянный Битрейт : 384 Кбит/сек Номинальный битрейт : 128 Кбит/сек Каналы : 2 канала Расположение каналов : Front: L RЧастота : 48,0 КГц Метод сжатия : С потерями Размер потока : 135 Мбайт (3%)Размер потока оригинала : 135 Мбайт (3%)Язык : EnglishДата кодирования : UTC 2014-04-21 07:36:47Дата пометки : UTC 2014-04-21 07:36:47 mdhd_Duration : 2943206

    Скриншоты




    Скачать .torrent

    Скачать торрент-файл бесплатно и на максимальной скорости!

    Как скачивать? · Что такое торрент? · Рейтинг и ограничения

    !ВНИМАНИЕ!
    Сайт не распространяет и не хранит электронные версии произведений, а занимается лишь лишь предоставлением доступа к создаваемому пользователями каталогу ссылок на торрент-файлы, которые содержат только списки хеш-сумм, убедительная просьба с жалобами обращаться напрямую к пользователю. Файлы для обмена на трекере предоставлены пользователями сайта, и администрация не несёт ответственности за их содержание. Просьба не заливать файлы, защищенные авторскими правами, а также файлы нелегального содержания!

    [Профиль] [ЛС]
    Показать сообщения:    
    Ответить на тему

    Текущее время: Сегодня, в 22:35

    Часовой пояс: GMT + 2



    Вы не можете начинать темы
    Вы не можете отвечать на сообщения
    Вы не можете редактировать свои сообщения
    Вы не можете удалять свои сообщения
    Вы не можете голосовать в опросах
    Вы не можете прикреплять файлы к сообщениям
    Вы не можете скачивать файлы