BitTorrentTracker PerecTracker.org
BitTorrentTracker PerecTracker.org
    
Регистрация  ·  Вход
 
 · 
Забыли пароль?

  • Авторский вечер поэта Михаила Матусовского в Колонном зале Дома Союзов. [1976, Pop, Концерт, DVB]

    Ответить на тему
     
    Автор Сообщение

    Columb

    Создавать темы 03-Июн-2014 21:38

           

    [Цитировать]

    Авторский вечер поэта Михаила Матусовского в Колонном зале Дома Союзов.
    Жанр: Pop, Концерт
    Продолжительность: 3 х 00:45:00
    Год выпуска: 1976
    Описание:
    Авторский вечер поэта Михаила Матусовского в Колонном зале Дома Союзов 1976 год
    ИОСИФ КОБЗОН , МАЙЯ КРИСТАЛИНСКАЯ , ЭДУАРД ХИЛЬ , РЕНАТ ИБРАГИМОВ , СЕРГЕЙ ЗАХАРОВ , КЛАВДИЯ ШУЛЬЖЕНКО , ВАЛЕНТИНА ТОЛКУНОВА , МАРИЯ ПАХОМЕНКО , ВИА " ПЕСНЯРЫ " , Большой детский хор ЦТ и ВР . Эстрадно-симфонический оркестр Центрального телевидения и Всесоюзного радио, руководитель и дирижер —лауреат премии Ленинского комсомола, народный артист СССР Юрий Васильевич СИЛАНТЬЕВ.
    Михаил Матусовский родился 10 июля (23 н.с.) в Луганске в рабочей семье. Детские годы прошли в городе, окруженном заводами, шахтами, железнодорожными мастерскими, узкоколейками.
    Закончив строительный техникум, работал на заводе. В это же эпоха стал печатать свои стихи в местных газетах и журналах, неоднократно выступал на литературных вечерах, получив уже тут признание.
    В начале 1930-х приехал в Москву учиться в Литературном институте, слушал лекции Гудзия и Поспелова, Аникста и Исбаха, Асмуса и Соколова. Увлекся древнерусской литературой. В 1939, окончив институт, поступил в аспирантуру, три года работая над диссертационным исследованием под руководством Н.Гудзия, знатока древнерусской литературы. Защита диссертации, назначенная на 27 июня 1941 не состоялась - началась война, и Матусовский, получив аттестат военного корреспондента, ушел на фронт.
    Н.Гудзий добился разрешения, дабы защита состоялась без присутствия соискателя, и Матусовский, находясь на фронте, получил телеграмму о присвоении ему степени кандидата филологических наук.
    Во фронтовых газетах постепенно появлялись стихотворные фельетоны и частушки Матусовского. Во время войны вышли сборники стихов: "Фронт" (1942), "Когда шумит Ильмень-озеро" (1944); в послевоенные годы - "Слушая Москву" (1948), "Улица мира" (1951) и др.
    Матусовский - известный поэт-песенник, написавший такие всем известные песни, как "Школьный вальс", "Подмосковные вечера", "На Безымянной высоте", "С чего начинается родина?", "Летите, голуби" и некоторый другие. Им были написаны песни к кинофильмам "Верные друзья", "Испытание верности", "Неподдающиеся" и др. М.Матусовский умер в 1990 в Москве
    Качество: DVB
    Контейнер: MPG
    Видео кодек: MPEG2
    Аудио кодек: MP2
    Видео: MPEG2 Video 720x576 (4:3) 25.00fps ~3 156 Kbps
    Аудио: MPEG Audio 48000Hz 2 channels 192 Кбит/сек

    Отчёт MediaInfo / BDInfo

    GeneralComplete name : J:\МПЕГ_1\Вечер Матусовского 1976 год\Вечер Матусовского 1976 год 1 часть_DVB by kuzmichm2196 .mpgFormat : MPEG-PSFile size : 1.08 GiBDuration : 45mn 19sOverall bit rate mode : VariableOverall bit rate : 3 416 KbpsWriting library : (c) 1998-2012 Womble Multimedia, Inc. / MPEG Video Wizard DVD 5.0.1.100 (03/2011) / Sep 22 2012
    VideoID : 224 (0xE0)Format : MPEG VideoFormat version : Version 2Format profile : Main@MainFormat settings, BVOP : YesFormat settings, Matrix : CustomFormat settings, GOP : M=3, N=36Duration : 45mn 18sBit rate mode : VariableBit rate : 3 156 KbpsMaximum bit rate : 15.0 MbpsWidth : 720 pixelsHeight : 576 pixelsDisplay aspect ratio : 4:3Frame rate : 25.000 fpsStandard : PALColor space : YUVChroma subsampling : 4:2:0Bit depth : 8 bitsScan type : InterlacedScan order : Top Field FirstCompression mode : LossyBits/(Pixel*Frame) : 0.304Time code of first frame : 00:00:00:00Time code source : Group of pictures headerStream size : 1 023 MiB (92%)Writing library : (c) 1998-2012 Womble Multimedia, Inc. / MPEG Video Wizard DVD 5.0.1.100 (03/2011) / Sep 22 2012
    AudioID : 192 (0xC0)Format : MPEG AudioFormat version : Version 1Format profile : Layer 2Duration : 45mn 19sBit rate mode : ConstantBit rate : 192 KbpsChannel count : 2 channelsSampling rate : 48.0 KHzCompression mode : LossyDelay relative to video : -80msStream size : 62.2 MiB (6%)

    Скриншоты



    Скачать .torrent

    Скачать торрент-файл бесплатно и на максимальной скорости!

    Как скачивать? · Что такое торрент? · Рейтинг и ограничения

    !ВНИМАНИЕ!
    Сайт не распространяет и не хранит электронные версии произведений, а занимается лишь лишь предоставлением доступа к создаваемому пользователями каталогу ссылок на торрент-файлы, которые содержат только списки хеш-сумм, убедительная просьба с жалобами обращаться напрямую к пользователю. Файлы для обмена на трекере предоставлены пользователями сайта, и администрация не несёт ответственности за их содержание. Просьба не заливать файлы, защищенные авторскими правами, а также файлы нелегального содержания!

    [Профиль] [ЛС]
    Показать сообщения:    
    Ответить на тему

    Текущее время: Сегодня, в 23:10

    Часовой пояс: GMT + 2



    Вы не можете начинать темы
    Вы не можете отвечать на сообщения
    Вы не можете редактировать свои сообщения
    Вы не можете удалять свои сообщения
    Вы не можете голосовать в опросах
    Вы не можете прикреплять файлы к сообщениям
    Вы не можете скачивать файлы