BitTorrentTracker PerecTracker.org
BitTorrentTracker PerecTracker.org
    
Регистрация  ·  Вход
 
 · 
Забыли пароль?

  • Взрослые и дети - Большой праздничный концерт [2014, Pop, Концерт, HDTV 1080i] [Россия HD]

    Ответить на тему
     
    Автор Сообщение

    Columb

    Создавать темы 03-Июн-2014 14:22

           

    [Цитировать]

    Взрослые и дети - Большой праздничный концерт
    Жанр: Pop, Концерт
    Продолжительность: 01:16:29
    Год выпуска: 2014
    Описание: В День защиты детей смотрите на Первом канале Большой праздничный концерт "Взрослые и дети" - традиционный концерт, посвященный дню защиты детей. Самые яркие звёзды эстрады сегодня вспоминают любимые детские песенки и поют их для всех детей и их родителей.
    Треклист
    01. Лариса Долиа, гр. Непоседы - Чунга-Чанга
    02. Анастасия Макеева, Лев Акселерод - В море ветер, в море буря
    03. Сергей Лазарев, гр. Непоседы - Песня о Мама
    04. Алсу, гр. Непоседы, Театр кукол и людей "Чудаки" - Улыбка
    05. Трофимовы Сергей Лиза и Ваня, Детский хор "Сольвейг" - Свет
    06. Анастосия Стоцкая, Лора Григорьева - Песня царевны (из мультфидьма ЛЕТУЧИЙ КОРАБЛЬ)
    07. Сосо Павлиошвили, гр. Непоседы - Арго
    08. Глюкоза, гр. Непоседы - Песня красной шапочки
    09. Диана Гурцкая, Марк Тишман, гр. Непоседы - Вальс Анастасии
    10. А-Студио - Облака
    11. Тася Маслякова, гр. Непоседы - В каждом маленьком ребёнке
    12. Глеб Матвейчук, гр. Непоседы - Луч солнца золотого
    13. Варвара, гр. Непоседы - Топ, топ топает малыш
    14. Маликовы Дмитрий и Стефания - Ты мне вериш или нет
    15. Нюша, гр. Непоседы - Ангел
    16. Майдановы Денис и Влада - Ты, да я, да мы с тобой
    17. Полина Гагарина, гр. Непоседы - Лесной олень
    18. Витас и Аллочка Грачёва - Дочка
    19. Елена Ваенга, гр. Непоседы - Колыбельная медведицы
    20. Дима Билан, Академия Я.Рудковской - Лови мои цветные сны
    21. Натали, гр. Непоседы - Прекрасное далёко
    22. Газмановы Олег и Родион, гр. Непоседы - Нарисовать мечту
    23. Все вместе - Взрослые и дети
    Качество: HDTV 1080i
    Контейнер: TS
    Видео кодек: H.264
    Аудио кодек: MP2
    Видео: H264; 1920x1080 (16:9); 25.000 fps; ~10.3 Mbps
    Аудио: MPEG Audio 48000Hz stereo 192 Кбит/сек

    Отчёт MediaInfo / BDInfo

    J:\1 HD канал\Взрослые и дети. Большой праздничный концерт 2014.06.01.ts General #1 ID : 1 (0x1) Complete name : J:\1 HD канал\Взрослые и дети. Большой праздничный концерт 2014.06.01.ts Format : MPEG-TS File size : 5.93 GiB Duration : 1h 16mn Overall bit rate : 11.1 Mbps Video #305 ID : 305 (0x131) Menu ID : 1 (0x1) Format : AVC Format/Info : Advanced Video Codec Format profile : High@L4.0 Format settings, CABAC : Yes Format settings, ReFrames : 3 frames Codec ID : 27 Duration : 1h 16mn Bit rate : 10.3 Mbps Width : 1 920 pixels Height : 1 080 pixels Display aspect ratio : 16:9 Frame rate : 25.000 fps Standard : Component Color space : YUV Chroma subsampling : 4:2:0 Bit depth : 8 bits Scan type : Interlaced Scan order : Top Field First Bits/(Pixel*Frame) : 0.200 Stream size : 5.53 GiB (93%) Color primaries : BT.709-5, BT.1361, IEC 61966-2-4, SMPTE RP177 Transfer characteristics : BT.709-5, BT.1361 Matrix coefficients : BT.709-5, BT.1361, IEC 61966-2-4 709, SMPTE RP177 Audio #405 ID : 405 (0x195) Menu ID : 1 (0x1) Format : MPEG Audio Format version : Version 1 Format profile : Layer 2 Codec ID : 3 Duration : 1h 16mn Bit rate mode : Constant Bit rate : 192 Kbps Channel(s) : 2 channels Sampling rate : 48.0 KHz Compression mode : Lossy Stream size : 105 MiB (2%) Language : German

    Скриншоты


    Скачать .torrent

    Скачать торрент-файл бесплатно и на максимальной скорости!

    Как скачивать? · Что такое торрент? · Рейтинг и ограничения

    !ВНИМАНИЕ!
    Сайт не распространяет и не хранит электронные версии произведений, а занимается лишь лишь предоставлением доступа к создаваемому пользователями каталогу ссылок на торрент-файлы, которые содержат только списки хеш-сумм, убедительная просьба с жалобами обращаться напрямую к пользователю. Файлы для обмена на трекере предоставлены пользователями сайта, и администрация не несёт ответственности за их содержание. Просьба не заливать файлы, защищенные авторскими правами, а также файлы нелегального содержания!

    [Профиль] [ЛС]
    Показать сообщения:    
    Ответить на тему

    Текущее время: Сегодня, в 12:08

    Часовой пояс: GMT + 2



    Вы не можете начинать темы
    Вы не можете отвечать на сообщения
    Вы не можете редактировать свои сообщения
    Вы не можете удалять свои сообщения
    Вы не можете голосовать в опросах
    Вы не можете прикреплять файлы к сообщениям
    Вы не можете скачивать файлы