BitTorrentTracker PerecTracker.org
BitTorrentTracker PerecTracker.org
    
Регистрация  ·  Вход
 
 · 
Забыли пароль?

  • Фестиваль детской художественной гимнастики АЛИНА [2014, Pop, Концерт, HDTV 1080i] [Россия HD]

    Ответить на тему
     
    Автор Сообщение

    Columb

    Создавать темы 03-Июн-2014 14:21

           

    [Цитировать]

    Фестиваль детской художественной гимнастики АЛИНА
    Жанр: Pop, Концерт
    Продолжительность: 01:13:26
    Год выпуска: 2014
    Описание: Фестиваль детской художественной гимнастики "Алина", организованный при поддержке Благотворительного фонда Алины Кабаевой, проводится уже шестой раз. Участниками грандиозного праздника музыки и спорта станут почти 500 мальчиков и девочек со всех концов России, а также из зарубежных стран, в том числе Кубы, Японии, Болгарии. Мероприятие с каждым годом становится все более ярким и масштабным – теперь в программе можно увидеть не только маленьких звезд художественной гимнастики, но и акробатов, воздушных гимнастов и танцевальные коллективы.
    Техданные
    Скриншоты
    Качество: HDTV 1080i
    Контейнер: TS
    Видео кодек: H.264
    Аудио кодек: MP2
    Видео: H264; 1920x1080 (16:9); 25.000 fps; ~16.7 Mbps
    Аудио: MPEG Audio 48000Hz stereo 192 Кбит/сек

    Отчёт MediaInfo / BDInfo

    J:\Россия HD\Фестиваль детской художественной гимнастики АЛИНА..ts General #1 ID : 1 (0x1) Complete name : J:\Россия HD\Фестиваль детской художественной гимнастики АЛИНА..ts Format : MPEG-TS File size : 9.05 GiB Duration : 1h 14mn Overall bit rate : 17.5 Mbps Video #2292 ID : 2292 (0x8F4) Menu ID : 1 (0x1) Format : AVC Format/Info : Advanced Video Codec Format profile : Main@L4.0 Format settings, CABAC : Yes Format settings, ReFrames : 3 frames Codec ID : 27 Duration : 1h 14mn Bit rate : 16.4 Mbps Width : 1 920 pixels Height : 1 080 pixels Display aspect ratio : 16:9 Frame rate : 25.000 fps Standard : Component Color space : YUV Chroma subsampling : 4:2:0 Bit depth : 8 bits Scan type : Interlaced Scan order : Top Field First Bits/(Pixel*Frame) : 0.317 Stream size : 8.50 GiB (94%) Color primaries : BT.709-5, BT.1361, IEC 61966-2-4, SMPTE RP177 Transfer characteristics : BT.709-5, BT.1361 Matrix coefficients : BT.709-5, BT.1361, IEC 61966-2-4 709, SMPTE RP177 Audio #2295 ID : 2295 (0x8F7) Menu ID : 1 (0x1) Format : MPEG Audio Format version : Version 1 Format profile : Layer 2 Codec ID : 3 Duration : 1h 14mn Bit rate mode : Constant Bit rate : 192 Kbps Channel(s) : 2 channels Sampling rate : 48.0 KHz Compression mode : Lossy Delay relative to video : -40ms Stream size : 102 MiB (1%) Language : Russian

    Скриншоты


    Скачать .torrent

    Скачать торрент-файл бесплатно и на максимальной скорости!

    Как скачивать? · Что такое торрент? · Рейтинг и ограничения

    !ВНИМАНИЕ!
    Сайт не распространяет и не хранит электронные версии произведений, а занимается лишь лишь предоставлением доступа к создаваемому пользователями каталогу ссылок на торрент-файлы, которые содержат только списки хеш-сумм, убедительная просьба с жалобами обращаться напрямую к пользователю. Файлы для обмена на трекере предоставлены пользователями сайта, и администрация не несёт ответственности за их содержание. Просьба не заливать файлы, защищенные авторскими правами, а также файлы нелегального содержания!

    [Профиль] [ЛС]
    Показать сообщения:    
    Ответить на тему

    Текущее время: Сегодня, в 07:08

    Часовой пояс: GMT + 2



    Вы не можете начинать темы
    Вы не можете отвечать на сообщения
    Вы не можете редактировать свои сообщения
    Вы не можете удалять свои сообщения
    Вы не можете голосовать в опросах
    Вы не можете прикреплять файлы к сообщениям
    Вы не можете скачивать файлы