BitTorrentTracker PerecTracker.org
BitTorrentTracker PerecTracker.org
    
Регистрация  ·  Вход
 
 · 
Забыли пароль?

  • Винтаж - Когда рядом ты (Мужчина) [2014, Pop, HD 1080]

    Ответить на тему
     
    Автор Сообщение

    Columb

    Создавать темы 03-Июн-2014 14:21

           

    [Цитировать]

    Винтаж - Когда рядом ты (Мужчина)
    Жанр: Pop
    Продолжительность: 4:57
    Год выпуска: 2014
    Описание: Смешной клип от группы "Винтаж" про 90-е. В роли возлюбленного Анны Плетневой - Михаил Галустян .
    Доп. информация: Автор музыки: Романоф А.
    Автор слов: Ковалев А., Кох А.
    Режиссер - Сергей Ткаченко (www.RentgenFILM.com)
    © 2014 Velvet Music
    Качество: HD 1080
    Контейнер: MP4
    Видео кодек: H.264
    Аудио кодек: AAC
    Видео: h264-1920x1080-8mbps-25fps
    Аудио: aac-320kbps-48kHz-stereo

    Отчёт MediaInfo / BDInfo

    GeneralComplete name : E:\Vintazh_KogdaTyRyadom.mp4Format : MPEG-4Format profile : Base Media / Version 2Codec ID : mp42File size : 295 MiBDuration : 4mn 57sOverall bit rate mode : VariableOverall bit rate : 8 302 KbpsEncoded date : UTC 2014-05-28 14:51:11Tagged date : UTC 2014-05-28 14:51:15©TIM : 01:00:00:21©TSC : 25©TSZ : 1
    VideoID : 1Format : AVCFormat/Info : Advanced Video CodecFormat profile : High@L4.0Format settings, CABAC : YesFormat settings, ReFrames : 3 framesCodec ID : avc1Codec ID/Info : Advanced Video CodingDuration : 4mn 57sBit rate mode : VariableBit rate : 8 000 KbpsWidth : 1 920 pixelsHeight : 1 080 pixelsDisplay aspect ratio : 16:9Frame rate mode : ConstantFrame rate : 25.000 fpsStandard : PALColor space : YUVChroma subsampling : 4:2:0Bit depth : 8 bitsScan type : ProgressiveBits/(Pixel*Frame) : 0.154Stream size : 283 MiB (96%)Language : EnglishEncoded date : UTC 2014-05-28 14:51:11Tagged date : UTC 2014-05-28 14:51:11Color primaries : BT.709Transfer characteristics : BT.709Matrix coefficients : BT.709
    AudioID : 2Format : AACFormat/Info : Advanced Audio CodecFormat profile : LCCodec ID : 40Duration : 4mn 57sSource duration : 4mn 57sBit rate mode : VariableBit rate : 317 KbpsMaximum bit rate : 407 KbpsChannel(s) : 2 channelsChannel positions : Front: L RSampling rate : 48.0 KHzCompression mode : LossyStream size : 11.3 MiB (4%)Source stream size : 11.3 MiB (4%)Language : EnglishEncoded date : UTC 2014-05-28 14:51:11Tagged date : UTC 2014-05-28 14:51:11

    Скриншоты





    Скачать .torrent

    Скачать торрент-файл бесплатно и на максимальной скорости!

    Как скачивать? · Что такое торрент? · Рейтинг и ограничения

    !ВНИМАНИЕ!
    Сайт не распространяет и не хранит электронные версии произведений, а занимается лишь лишь предоставлением доступа к создаваемому пользователями каталогу ссылок на торрент-файлы, которые содержат только списки хеш-сумм, убедительная просьба с жалобами обращаться напрямую к пользователю. Файлы для обмена на трекере предоставлены пользователями сайта, и администрация не несёт ответственности за их содержание. Просьба не заливать файлы, защищенные авторскими правами, а также файлы нелегального содержания!

    [Профиль] [ЛС]
    Показать сообщения:    
    Ответить на тему

    Текущее время: Сегодня, в 10:26

    Часовой пояс: GMT + 2



    Вы не можете начинать темы
    Вы не можете отвечать на сообщения
    Вы не можете редактировать свои сообщения
    Вы не можете удалять свои сообщения
    Вы не можете голосовать в опросах
    Вы не можете прикреплять файлы к сообщениям
    Вы не можете скачивать файлы