BitTorrentTracker PerecTracker.org
BitTorrentTracker PerecTracker.org
    
Регистрация  ·  Вход
 
 · 
Забыли пароль?

  • Полина Гагарина - Шагай [2014, Pop, HD 1080]

    Ответить на тему
     
    Автор Сообщение

    Columb

    Создавать темы 03-Июн-2014 14:19

           

    [Цитировать]

    Полина Гагарина - Шагай
    Жанр: Pop
    Продолжительность: 3:33
    Год выпуска: 2014
    Описание: У всех скелеты в шкафу - а у Полины Гагариной, как можно увидеть, гора мужиков за окном валяется.
    Доп. информация: Музыка и слова - Константин Меладзе
    Режиссер - Сергей Солодкий
    © 2014 Velvet Music
    Качество: HD 1080
    Контейнер: MP4
    Видео кодек: H.264
    Аудио кодек: AAC
    Видео: h264-1920x1080-8mbps-25fps
    Аудио: aac-320kbps-48kHz-stereo

    Отчёт MediaInfo / BDInfo

    GeneralComplete name : E:\GagarinaPolina_Shagai.mp4Format : MPEG-4Format profile : Base Media / Version 2Codec ID : mp42File size : 211 MiBDuration : 3mn 33sOverall bit rate mode : VariableOverall bit rate : 8 307 KbpsEncoded date : UTC 2014-05-28 14:54:56Tagged date : UTC 2014-05-28 14:54:59©TIM : 00:00:03:16©TSC : 25©TSZ : 1
    VideoID : 1Format : AVCFormat/Info : Advanced Video CodecFormat profile : High@L4.0Format settings, CABAC : YesFormat settings, ReFrames : 3 framesCodec ID : avc1Codec ID/Info : Advanced Video CodingDuration : 3mn 33sBit rate mode : VariableBit rate : 8 000 KbpsWidth : 1 920 pixelsHeight : 1 080 pixelsDisplay aspect ratio : 16:9Frame rate mode : ConstantFrame rate : 25.000 fpsStandard : PALColor space : YUVChroma subsampling : 4:2:0Bit depth : 8 bitsScan type : ProgressiveBits/(Pixel*Frame) : 0.154Stream size : 203 MiB (96%)Language : EnglishEncoded date : UTC 2014-05-28 14:54:56Tagged date : UTC 2014-05-28 14:54:56Color primaries : BT.709Transfer characteristics : BT.709Matrix coefficients : BT.709
    AudioID : 2Format : AACFormat/Info : Advanced Audio CodecFormat profile : LCCodec ID : 40Duration : 3mn 33sSource duration : 3mn 33sBit rate mode : VariableBit rate : 317 KbpsMaximum bit rate : 411 KbpsChannel(s) : 2 channelsChannel positions : Front: L RSampling rate : 48.0 KHzCompression mode : LossyStream size : 8.08 MiB (4%)Source stream size : 8.08 MiB (4%)Language : EnglishEncoded date : UTC 2014-05-28 14:54:56Tagged date : UTC 2014-05-28 14:54:56

    Скриншоты





    Скачать .torrent

    Скачать торрент-файл бесплатно и на максимальной скорости!

    Как скачивать? · Что такое торрент? · Рейтинг и ограничения

    !ВНИМАНИЕ!
    Сайт не распространяет и не хранит электронные версии произведений, а занимается лишь лишь предоставлением доступа к создаваемому пользователями каталогу ссылок на торрент-файлы, которые содержат только списки хеш-сумм, убедительная просьба с жалобами обращаться напрямую к пользователю. Файлы для обмена на трекере предоставлены пользователями сайта, и администрация не несёт ответственности за их содержание. Просьба не заливать файлы, защищенные авторскими правами, а также файлы нелегального содержания!

    [Профиль] [ЛС]
    Показать сообщения:    
    Ответить на тему

    Текущее время: Сегодня, в 08:03

    Часовой пояс: GMT + 2



    Вы не можете начинать темы
    Вы не можете отвечать на сообщения
    Вы не можете редактировать свои сообщения
    Вы не можете удалять свои сообщения
    Вы не можете голосовать в опросах
    Вы не можете прикреплять файлы к сообщениям
    Вы не можете скачивать файлы