BitTorrentTracker PerecTracker.org
BitTorrentTracker PerecTracker.org
    
Регистрация  ·  Вход
 
 · 
Забыли пароль?

  • …Желаем счастья вам (Фильм-концерт) [1985 г., Retro, TVRip]

    Ответить на тему
     
    Автор Сообщение

    Columb

    Создавать темы 03-Июн-2014 14:16

           

    [Цитировать]

    …Желаем счастья вам
    Страна: СССР
    Жанр: Retro
    Продолжительность: 0:22:47
    Год выпуска: 1985 г.
    Описание: Фильм-концерт
    Треклист:
  • ВИА «Цветы» — «Мы желаем счастья вам» (Стас Намин — Игорь Шаферан)
  • Валерий Леонтьев — «Полюбите пианиста» (Раймонд Паулс — Андрей Вознесенский)
  • Наталья Рожкова — «Песенка клоуна» (Юлий Ким)
  • Владимир Мигуля — «Домик на окраине» (Владимир Мигуля — Анатолий Поперечный)
  • Вячеслав Малежик — «Весна на Одере» (Вячеслав Малежик — Вячеслав Малежик, Михаил Танич)
  • Группа «Автограф» — «Монолог» (Александр Ситковецкий — Маргарита Пушкина, Борис Баркас)
  • Александр Суханов — «Рисунок на бумаге» (Александр Суханов)
    Источник: Автор записи — mike59 (Михаил) с форума «Ностальгия»
    Качество: TVRip
    Контейнер: MPG
    Видео кодек: MPEG2
    Аудио кодек: AC3
    Видео: MPEG2, 720×576, 4:3, 5000 Kbps VBR, 25 fps
    Аудио: AC3, 192 Kbps, 48 kHz, 2 ch

    MediaInfo

    GeneralComplete name : D:\Torrents\Желаем счастья вам (1985).mpgFormat : MPEG-PSFile size : 896 MiBDuration : 22mn 47sOverall bit rate mode : VariableOverall bit rate : 5 497 Kbps
    VideoID : 224 (0xE0)Format : MPEG VideoFormat version : Version 2Format profile : Main@MainFormat settings, BVOP : NoFormat settings, Matrix : CustomFormat settings, GOP : VariableDuration : 22mn 47sBit rate mode : VariableBit rate : 5 196 KbpsMaximum bit rate : 9 802 KbpsWidth : 720 pixelsHeight : 576 pixelsDisplay aspect ratio : 4:3Frame rate : 25.000 fpsStandard : PALColor space : YUVChroma subsampling : 4:2:0Bit depth : 8 bitsScan type : InterlacedScan order : Top Field FirstCompression mode : LossyBits/(Pixel*Frame) : 0.501Time code of first frame : 00:00:00:00Time code source : Group of pictures headerStream size : 847 MiB (95%)
    AudioID : 189 (0xBD)-128 (0x80)Format : AC-3Format/Info : Audio Coding 3Mode extension : CM (complete main)Format settings, Endianness : BigMuxing mode : DVD-VideoDuration : 22mn 47sBit rate mode : ConstantBit rate : 192 KbpsChannel(s) : 2 channelsChannel positions : Front: L RSampling rate : 48.0 KHzBit depth : 16 bitsCompression mode : LossyStream size : 31.3 MiB (3%)

    Скриншоты

    Скринлист

    Скачать .torrent

    Скачать торрент-файл бесплатно и на максимальной скорости!

    Как скачивать? · Что такое торрент? · Рейтинг и ограничения

    !ВНИМАНИЕ!
    Сайт не распространяет и не хранит электронные версии произведений, а занимается лишь лишь предоставлением доступа к создаваемому пользователями каталогу ссылок на торрент-файлы, которые содержат только списки хеш-сумм, убедительная просьба с жалобами обращаться напрямую к пользователю. Файлы для обмена на трекере предоставлены пользователями сайта, и администрация не несёт ответственности за их содержание. Просьба не заливать файлы, защищенные авторскими правами, а также файлы нелегального содержания!

  • [Профиль] [ЛС]
    Показать сообщения:    
    Ответить на тему

    Текущее время: Сегодня, в 14:31

    Часовой пояс: GMT + 2



    Вы не можете начинать темы
    Вы не можете отвечать на сообщения
    Вы не можете редактировать свои сообщения
    Вы не можете удалять свои сообщения
    Вы не можете голосовать в опросах
    Вы не можете прикреплять файлы к сообщениям
    Вы не можете скачивать файлы