BitTorrentTracker PerecTracker.org
BitTorrentTracker PerecTracker.org
    
Регистрация  ·  Вход
 
 · 
Забыли пароль?

  • Романтика романса. Весна идёт, весне дорогу (Ольга Тутушкина, Сергей Злобин) [2014 г., Retro, концерт, SATRip]

    Ответить на тему
     
    Автор Сообщение

    Columb

    Создавать темы 03-Июн-2014 12:29

           

    [Цитировать]

    Романтика романса. Весна идёт, весне дорогуГод выпуска: 2014.
    Жанр: Retro, концерт.
    Продолжительность: 00:52:30.
    Режиссеры: Ольга Тутушкина, Сергей Злобин.
    Автор текста ведущих: Марина Скалкина.
    Оператор: Владимир Кузаков.
    Лидер-оркестр Анатолия Силина.
    Ведущие: Святослав Бэлза и Мария Максакова.
    В концерте принимают участие:
    Максим Катырев, Юлия Гончарова, Нина Шацкая, Сергей Дудинский.
    Описание:
    В программе звучат песни советских композиторов, романсы и мелодии из кинофильмов.

    Трек-лист

    01. "Не покидай меня, весна" (музыка Владимира Дашкевича, слова Юлия Кима) (исполняет Максим Катырев),
    02. "Калитка" (музыка Александра Обухова, слова Алексея Будищева) (исполняет Максим Катырев),
    03. Романс (из кинофильма "Дни Турбиных") (музыка Вениамина Баснера, слова Михаила Матусовского) (исполняет Юлия Гончарова),
    04. "Тихо, так тихо..." (музыка и слова неизвестных авторов) (исполняет Нина Шацкая),
    05. "Я ехала домой" (музыка и слова Марии Пуаре) (исполняет Нина Шацкая),
    06. "Ночь светла" (музыка Михаила Шишкина, слова Николая Языкова) (исполняет Сергей Дудинский),
    07. "Яблони в цвету" (музыка Евгения Мартынова, слова Ильи Резника) (исполняет Сергей Дудинский),
    08. "Весеннее танго" (музыка и слова Валерия Миляева) (исполняет Сергей Дудинский),
    09. "Ландыши" (музыка Оскара Фельцмана, слова Ольги Фадеевой) (исполняет Юлия Гончарова),
    10. "Песня о весне" (из кинофильма "Весна") (музыка Исаака Дунаевского, слова Михаила Вольпина) (исполняют Юлия Гончарова и Максим Катырев),
    11. "Не покидает нас весна" (музыка Юрия Саульского, слова Леонида Завальнюка) (исполняют все участники концерта).
    Дополнительная информация:
    Страна: Россия .
    Выпущено: ГТРК "Культура".

    Трансляция ГТРК "Культура" в 19:50 31.05.2014 г.
    Релиз
    Рип lesik689.
    Качество видео:...SATRip
    Формат:.................AVI
    Видео:..720x416 (1.73:1), 25 fps, XviD MPEG-4 ~1698 kbps avg, 0.23 bit/pixel
    Аудио:..48 kHz, AC3 Dolby Digital, 2/0 (L,R) ch, ~256 kbps

    Отчет Media Info

    Общее
    Полное имя : Romantika.romansa.Vesna.idet.vesne.dorogu.2014.XviD.SATRip.fenixclub.avi
    Формат : AVI
    Формат/Информация : Audio Video Interleave
    Размер файла : 736 Мбайт
    Продолжительность : 52 м.
    Общий поток : 1959 Кбит/сек
    Библиотека кодирования : MPlayer
    Видео
    Идентификатор : 0
    Формат : MPEG-4 Visual
    Профиль формата : Advanced Simple@L5
    Параметр BVOP формата : 2
    Параметр QPel формата : Нет
    Параметр GMC формата : Без точки перехода
    Параметр матрицы формата : Default (MPEG)
    Режим смешивания : Сжатый битовый поток
    Идентификатор кодека : XVID
    Идентификатор кодека/Подсказка : XviD
    Продолжительность : 52 м.
    Битрейт : 1698 Кбит/сек
    Ширина : 720 пикселей
    Высота : 416 пикселей
    Соотношение сторон : 1,731
    Частота кадров : 25,000 кадров/сек
    Цветовое пространство : YUV
    Субдискретизация насыщенности : 4:2:0
    Битовая глубина : 8 бит
    Тип развёртки : Прогрессивная
    Метод сжатия : С потерями
    Бит/(Пиксели*Кадры) : 0.227
    Размер потока : 638 Мбайт (87%)
    Библиотека кодирования : XviD 64
    Аудио
    Идентификатор : 1
    Формат : AC-3
    Формат/Информация : Audio Coding 3
    Расширение режима : CM (complete main)
    Параметр Endianness формата : Big
    Идентификатор кодека : 2000
    Продолжительность : 52 м.
    Вид битрейта : Постоянный
    Битрейт : 256 Кбит/сек
    Каналы : 2 канала
    Расположение каналов : Front: L R
    Частота : 48,0 КГц
    Битовая глубина : 16 бит
    Метод сжатия : С потерями
    Размер потока : 96,1 Мбайт (13%)
    Выравнивание : Соединение по промежуткам
    Продолжительность промежутка : 480 мс. (12,00 видеокадров)
    Время предзагрузки промежутка : 960 мс.

    Скриншоты

    Альтернативный хост

    Скачать .torrent

    Скачать торрент-файл бесплатно и на максимальной скорости!

    Как скачивать? · Что такое торрент? · Рейтинг и ограничения

    !ВНИМАНИЕ!
    Сайт не распространяет и не хранит электронные версии произведений, а занимается лишь лишь предоставлением доступа к создаваемому пользователями каталогу ссылок на торрент-файлы, которые содержат только списки хеш-сумм, убедительная просьба с жалобами обращаться напрямую к пользователю. Файлы для обмена на трекере предоставлены пользователями сайта, и администрация не несёт ответственности за их содержание. Просьба не заливать файлы, защищенные авторскими правами, а также файлы нелегального содержания!

    [Профиль] [ЛС]
    Показать сообщения:    
    Ответить на тему

    Текущее время: Сегодня, в 04:06

    Часовой пояс: GMT + 2



    Вы не можете начинать темы
    Вы не можете отвечать на сообщения
    Вы не можете редактировать свои сообщения
    Вы не можете удалять свои сообщения
    Вы не можете голосовать в опросах
    Вы не можете прикреплять файлы к сообщениям
    Вы не можете скачивать файлы