BitTorrentTracker PerecTracker.org
BitTorrentTracker PerecTracker.org
    
Регистрация  ·  Вход
 
 · 
Забыли пароль?

  • Булату Окуджаве посвящается. Переделкино-2014 (Сергей Антипов, Олег Кунин) [2014 г., Концерт, Retro, SATRip]

    Ответить на тему
     
    Автор Сообщение

    Columb

    Создавать темы 03-Июн-2014 12:23

           

    [Цитировать]

    Булату Окуджаве посвящается. Переделкино-20149 мая исполнилось 90 лет со дня рождения Булата Шалвовича Окуджавы
    Год выпуска: 2014.
    Жанр: Концерт, Retro.
    Продолжительность: 01:29:55.
    Режиссеры: Ольга Тутушкина, Константин Куц.
    Ведущая: Фекла Толстая.
    Участники концерта:
    Вахтанг Каландадзе, Светлана Крючкова, Иосиф Кобзон, Ольга Будина, Дмитрий Сухарев, Евгений Дятлов, Елена Камбурова, Николай Фоменко, Даша Ульянова (7 лет), Ефим Шифрин, Галина Хомчик, Дмитрий Харатьян, Лев Аннинский, Григорий Сиятвинда, Мария Кац, Александр Мирзаян, Вероника Долина, Леонид Серебренников, Юрий Ряшенцев, Владимир Дурденко, Александр Городницкий.
    Аккомпаниаторы:
    Алексей Евсюков (клавиши), Александр Лемешев (стеклянная арфа), Анатолий Ядрышников (гитара), Равиль Каримов (гитара), Евгений Кобылянский (клавиши), Антон Дашкин (ударные), Александр Байдаков (бас-гитара), Дмитрий Земский (гитара), Александр Прокопович (клавиши).
    Описание:
    Ежегодный традиционный майский концерт в доме-музее Булата Окуджавы в Переделкине состоялся уже в одиннадцатый раз.

    Трек-лист

    01. "Грузинская песня" (музыка и слова Булата Окуджавы) (исполняет Вахтанг Каландадзе),
    02. "Земля изрыта вкривь и вкось", "Мне все известно. Я устал все знать..." и "Я обнимаю всех живых" (стихотворения Булата Окуджавы) (исполняет Светлана Крючкова),
    03. "Молитва" (музыка Булата Окуджавы, слова Валентина Меня) (исполняет Иосиф Кобзон),
    04. "Бери шинель, пошли домой" (музыка Валентина Левашова, слова Булата Окуджавы) (исполняет Иосиф Кобзон),
    05. "Песенка о Моцарте" (музыка и слова Булата Окуджавы) (исполняет Ольга Будина),
    06. "У поэта соперника нету..." (стихотворение Булата Окуджавы) (исполняет Ольга Будина),
    07. "Мы идём угловатым Арбатом" (стихотворение Николая Панченко) (исполняет Дмитрий Сухарев),
    08. "Ваше благородие" (музыка Исаака Шварца, слова Булата Окуджавы) (исполняет Евгений Дятлов),
    09. "В земные страсти вовлеченный..." (стихотворение Булата Окуджавы) (исполняет Елена Камбурова),
    10. "Женюсь, женюсь, какие могут быть игрушки..." (музыка Исаака Шварца, слова Булата Окуджавы) (исполняет Николай Фоменко),
    11. "Песенка Мальвины" (музыка и слова Булата Окуджавы) (исполняет Даша Ульянова (7 лет)),
    12. "Посвящение Антокольскому" (стихотворение Булата Окуджавы) (исполняет Ефим Шифрин),
    13. "С каждым часом мы стареем..." (музыка и слова Булата Окуджавы) (исполняет Ефим Шифрин),
    14. "Божественная суббота" (музыка Виктора Берковского, слова Булата Окуджавы) (исполняет Галина Хомчик),
    15. "В склянке темного стекла..." (музыка и слова Булата Окуджавы) (исполняет Дмитрий Харатьян),
    16. "Эпизод" (рассказывает Лев Аннинский),
    17. "Песенка о старом, больном, усталом короле" (музыка и слова Булата Окуджавы) (исполняет Григорий Сиятвинда),
    18. "Батальное Полотно" (музыка и слова Булата Окуджавы) (исполняет Мария Кац),
    19. "Надпись на камне (Посвящается учащимся 33-й московской школы, придумавшим слово "арбатство")" (музыка и слова Булата Окуджавы) (исполняет Александр Мирзаян),
    20. "На Сретенке ночной" (стихотворение Булата Окуджавы) (исполняет Вероника Долина),
    21. "Не клониська ты головушка..." (музыка и слова Булата Окуджавы) (исполняет Вероника Долина),
    22. "Прощание с Новогодней елкой" (музыка и слова Булата Окуджавы) (исполняет Леонид Серебренников),
    23. "Чаепитие на Арбате" (стихотворение Булата Окуджавы) (исполняет Юрий Ряшенцев),
    24. "На фоне Пушкина снимается семейство" (музыка и слова Булата Окуджавы) (исполняет Владимир Дурденко),
    24. "Водитель, который меня через Ладогу вёз" (стихотворение Александра Городницкого) (исполняет автор),
    23. "Десятый наш десантный батальон" (музыка и слова Булата Окуджавы) (исполняет Александр Городницкий).
    Дополнительная информация:
    Страна: Россия .
    Выпущено: © ГТРК "Культура".
    Режиссёр-постановщик: Ольга Тутушкина.
    Автор сценария и шеф-редактор: Григорий Шестаков.
    Режиссёр телеверсии: Константин Куц.
    Оператор-постановщик: Владимир Иванов.
    Звукорежиссер: Евгения Пожарищенская.
    Художник по свету: Вячеслав Савин.

    Трансляция ГТРК "Культура" в 21:50 09.05.2014 г.
    Релиз
    Рип lesik689 .
    Качество видео:...SATRip
    Формат:.................AVI
    Видео:..704x400 (1.76:1), 25 fps, XviD MPEG-4 ~1897 kbps avg, 0.27 bit/pixel
    Аудио:..48 kHz, AC3 Dolby Digital, 2/0 (L,R) ch, ~256 kbps

    Отчет Media Info

    General
    Complete name : Bularu.Okudzhave.posvjashzhajetsja.Peredelkino.2014.XviD.SATRip.fenixclub.avi
    Формат : AVI
    Формат/Информация : Audio Video Interleave
    Профиль формата : OpenDML
    Размер файла : 1,36 Гбайт
    Продолжительность : 1 ч. 29 м.
    Общий поток : 2161 Кбит/сек
    Библиотека кодирования : MPlayer
    Видео
    Идентификатор : 0
    Формат : MPEG-4 Visual
    Профиль формата : Advanced Simple@L5
    Параметр BVOP формата : 2
    Параметр QPel формата : Нет
    Параметр GMC формата : Без точки перехода
    Параметр матрицы формата : Default (MPEG)
    Режим смешивания : Сжатый битовый поток
    Идентификатор кодека : XVID
    Идентификатор кодека/Подсказка : XviD
    Продолжительность : 1 ч. 29 м.
    Битрейт : 1899 Кбит/сек
    Ширина : 704 пикселя
    Высота : 400 пикселей
    Соотношение сторон : 16:9
    Частота кадров : 25,000 кадров/сек
    Цветовое пространство : YUV
    Субдискретизация насыщенности : 4:2:0
    Битовая глубина : 8 бит
    Тип развёртки : Прогрессивная
    Метод сжатия : С потерями
    Бит/(Пиксели*Кадры) : 0.270
    Размер потока : 1,19 Гбайт (88%)
    Библиотека кодирования : XviD 64
    Аудио
    Идентификатор : 1
    Формат : AC-3
    Формат/Информация : Audio Coding 3
    Расширение режима : CM (complete main)
    Параметр Endianness формата : Big
    Идентификатор кодека : 2000
    Продолжительность : 1 ч. 29 м.
    Вид битрейта : Постоянный
    Битрейт : 256 Кбит/сек
    Каналы : 2 канала
    Расположение каналов : Front: L R
    Частота : 48,0 КГц
    Битовая глубина : 16 бит
    Метод сжатия : С потерями
    Размер потока : 165 Мбайт (12%)
    Выравнивание : Соединение по промежуткам
    Продолжительность промежутка : 480 мс. (12,00 видеокадров)
    Время предзагрузки промежутка : 960 мс.

    Скриншот с названием

    Скриншоты


    Альтернативный хост


    Скачать .torrent

    Скачать торрент-файл бесплатно и на максимальной скорости!

    Как скачивать? · Что такое торрент? · Рейтинг и ограничения

    !ВНИМАНИЕ!
    Сайт не распространяет и не хранит электронные версии произведений, а занимается лишь лишь предоставлением доступа к создаваемому пользователями каталогу ссылок на торрент-файлы, которые содержат только списки хеш-сумм, убедительная просьба с жалобами обращаться напрямую к пользователю. Файлы для обмена на трекере предоставлены пользователями сайта, и администрация не несёт ответственности за их содержание. Просьба не заливать файлы, защищенные авторскими правами, а также файлы нелегального содержания!

    [Профиль] [ЛС]
    Показать сообщения:    
    Ответить на тему

    Текущее время: Сегодня, в 09:53

    Часовой пояс: GMT + 2



    Вы не можете начинать темы
    Вы не можете отвечать на сообщения
    Вы не можете редактировать свои сообщения
    Вы не можете удалять свои сообщения
    Вы не можете голосовать в опросах
    Вы не можете прикреплять файлы к сообщениям
    Вы не можете скачивать файлы