BitTorrentTracker PerecTracker.org
BitTorrentTracker PerecTracker.org
    
Регистрация  ·  Вход
 
 · 
Забыли пароль?

  • (Heavy Metal) Чёрный Кофе - Лови настроение рок-н-ролл - 2007, FLAC (tracks+.cue), lossless

    Ответить на тему
     
    Автор Сообщение

    Columb

    Создавать темы 02-Июн-2014 08:51

           

    [Цитировать]

    Чёрный Кофе / Лови настроение рок-н-ролл
    Жанр: Heavy Metal
    Страна-производитель диска: Россия
    Год издания: 2007
    Издатель (лейбл): Никитин
    Номер по каталогу: ТФН-CD22/07
    Страна: Россия
    Аудиокодек: FLAC (*.flac)
    Тип рипа: tracks+.cue
    Битрейт аудио: lossless
    Продолжительность: 01:04:04
    Источник (релизер): собственный диск
    Наличие сканов в содержимом раздачи: нет
    Треклист:
    1. Знамя мира
    2. Жизни рассвет
    3. Чёрный кофе
    4. Светлый металл
    5. Где ответ
    6. Ночной ястреб
    7. Краски
    8. Ветер
    9. Где-то в слезах
    10. Мёртвые души
    11. Остров
    12. Обитель
    13. Светлый образ
    14. И только мы
    15. Рок!

    Лог создания рипа

    Exact Audio Copy V1.0 beta 3 from 29. August 2011
    EAC extraction logfile from 1. June 2014, 6:48
    Чёрный Кофе / Лови настроение рок-н-ролл
    Used drive : SlimtypeDVD A DS8A4S Adapter: 1 ID: 0
    Read mode : SecureUtilize accurate stream : YesDefeat audio cache : YesMake use of C2 pointers : No
    Read offset correction : 6Overread into Lead-In and Lead-Out : NoFill up missing offset samples with silence : YesDelete leading and trailing silent blocks : NoNull samples used in CRC calculations : YesUsed interface : Native Win32 interface for Win NT & 2000Gap handling : Appended to previous track
    Used output format : User Defined EncoderSelected bitrate : 128 kBit/sQuality : HighAdd ID3 tag : NoCommand line compressor : C:\Program Files\Exact Audio Copy\Flac\flac.exeAdditional command line options : -V -8 -T "Date=%year%" -T "Genre=%genre%" %source%
    TOC of the extracted CD
    Track | Start | Length | Start sector | End sector --------------------------------------------------------- 1 | 0:00.00 | 3:42.00 | 0 | 16649 2 | 3:42.00 | 3:31.72 | 16650 | 32546 3 | 7:13.72 | 2:48.05 | 32547 | 45151 4 | 10:02.02 | 3:34.12 | 45152 | 61213 5 | 13:36.14 | 4:13.48 | 61214 | 80236 6 | 17:49.62 | 5:18.16 | 80237 | 104102 7 | 23:08.03 | 4:13.11 | 104103 | 123088 8 | 27:21.14 | 5:18.14 | 123089 | 146952 9 | 32:39.28 | 4:30.47 | 146953 | 167249 10 | 37:10.00 | 4:21.12 | 167250 | 186836 11 | 41:31.12 | 6:07.73 | 186837 | 214434 12 | 47:39.10 | 4:06.44 | 214435 | 232928 13 | 51:45.54 | 4:18.13 | 232929 | 252291 14 | 56:03.67 | 3:45.13 | 252292 | 269179 15 | 59:49.05 | 4:14.73 | 269180 | 288302
    Track 1
    Filename G:\Чёрный Кофе\Чёрный Кофе - Лови настроение рок-н-ролл (2007)\01 Знамя мира.wav
    Pre-gap length 0:00:02.00
    Peak level 100.0 % Extraction speed 1.8 X Track quality 100.0 % Test CRC A823CACD Copy CRC A823CACD Copy OK
    Track 2
    Filename G:\Чёрный Кофе\Чёрный Кофе - Лови настроение рок-н-ролл (2007)\02 Жизни рассвет.wav
    Pre-gap length 0:00:02.00
    Peak level 100.0 % Extraction speed 2.0 X Track quality 100.0 % Test CRC 7FAA3EF8 Copy CRC 7FAA3EF8 Copy OK
    Track 3
    Filename G:\Чёрный Кофе\Чёрный Кофе - Лови настроение рок-н-ролл (2007)\03 Чёрный кофе.wav
    Pre-gap length 0:00:02.00
    Peak level 100.0 % Extraction speed 2.0 X Track quality 100.0 % Test CRC 345BC43C Copy CRC 345BC43C Copy OK
    Track 4
    Filename G:\Чёрный Кофе\Чёрный Кофе - Лови настроение рок-н-ролл (2007)\04 Светлый металл.wav
    Pre-gap length 0:00:02.00
    Peak level 100.0 % Extraction speed 2.2 X Track quality 100.0 % Test CRC EA831BDD Copy CRC EA831BDD Copy OK
    Track 5
    Filename G:\Чёрный Кофе\Чёрный Кофе - Лови настроение рок-н-ролл (2007)\05 Где ответ.wav
    Pre-gap length 0:00:02.00
    Peak level 100.0 % Extraction speed 2.1 X Track quality 99.9 % Test CRC 7DC1EE2A Copy CRC 7DC1EE2A Copy OK
    Track 6
    Filename G:\Чёрный Кофе\Чёрный Кофе - Лови настроение рок-н-ролл (2007)\06 Ночной ястреб.wav
    Pre-gap length 0:00:02.00
    Peak level 100.0 % Extraction speed 2.7 X Track quality 100.0 % Test CRC AD274F4D Copy CRC AD274F4D Copy OK
    Track 7
    Filename G:\Чёрный Кофе\Чёрный Кофе - Лови настроение рок-н-ролл (2007)\07 Краски.wav
    Pre-gap length 0:00:02.00
    Peak level 100.0 % Extraction speed 2.8 X Track quality 100.0 % Test CRC 2633E39D Copy CRC 2633E39D Copy OK
    Track 8
    Filename G:\Чёрный Кофе\Чёрный Кофе - Лови настроение рок-н-ролл (2007)\08 Ветер.wav
    Pre-gap length 0:00:02.00
    Peak level 98.4 % Extraction speed 3.0 X Track quality 100.0 % Test CRC 067E4BA2 Copy CRC 067E4BA2 Copy OK
    Track 9
    Filename G:\Чёрный Кофе\Чёрный Кофе - Лови настроение рок-н-ролл (2007)\09 Где-то в слезах.wav
    Pre-gap length 0:00:02.00
    Peak level 98.4 % Extraction speed 3.1 X Track quality 100.0 % Test CRC 12EEC3EE Copy CRC 12EEC3EE Copy OK
    Track 10
    Filename G:\Чёрный Кофе\Чёрный Кофе - Лови настроение рок-н-ролл (2007)\10 Мёртвые души.wav
    Pre-gap length 0:00:02.00
    Peak level 98.2 % Extraction speed 3.2 X Track quality 100.0 % Test CRC E2C952D3 Copy CRC E2C952D3 Copy OK
    Track 11
    Filename G:\Чёрный Кофе\Чёрный Кофе - Лови настроение рок-н-ролл (2007)\11 Остров.wav
    Pre-gap length 0:00:02.00
    Peak level 100.0 % Extraction speed 3.5 X Track quality 100.0 % Test CRC EC09563E Copy CRC EC09563E Copy OK
    Track 12
    Filename G:\Чёрный Кофе\Чёрный Кофе - Лови настроение рок-н-ролл (2007)\12 Обитель.wav
    Pre-gap length 0:00:02.00
    Peak level 100.0 % Extraction speed 3.5 X Track quality 100.0 % Test CRC 682CACC5 Copy CRC 682CACC5 Copy OK
    Track 13
    Filename G:\Чёрный Кофе\Чёрный Кофе - Лови настроение рок-н-ролл (2007)\13 Светлый образ.wav
    Pre-gap length 0:00:02.00
    Peak level 95.6 % Extraction speed 3.6 X Track quality 100.0 % Test CRC F1AEC54C Copy CRC F1AEC54C Copy OK
    Track 14
    Filename G:\Чёрный Кофе\Чёрный Кофе - Лови настроение рок-н-ролл (2007)\14 И только мы.wav
    Pre-gap length 0:00:02.00
    Peak level 96.8 % Extraction speed 3.6 X Track quality 100.0 % Test CRC 65D548B3 Copy CRC 65D548B3 Copy OK
    Track 15
    Filename G:\Чёрный Кофе\Чёрный Кофе - Лови настроение рок-н-ролл (2007)\15 Рок!.wav
    Pre-gap length 0:00:02.00
    Peak level 100.0 % Extraction speed 3.3 X Track quality 99.9 % Test CRC AAC3B71E Copy CRC AAC3B71E Copy OK
    No errors occurred
    End of status report
    ==== Log checksum 892645DD5094DB4A2E228423808F2EBED2F476680682623FCC5FBBA836BFE95D ====

    Содержание индексной карты (.CUE)

    REM GENRE "Heavy Metal"REM DATE 2007REM DISCID C00F040FREM COMMENT "ExactAudioCopy v1.0b3"PERFORMER "Чёрный Кофе"TITLE "Лови настроение рок-н-ролл"FILE "01 Знамя мира.wav" WAVE TRACK 01 AUDIO TITLE "Знамя мира" PERFORMER "Чёрный Кофе" INDEX 01 00:00:00 TRACK 02 AUDIO TITLE "Жизни рассвет" PERFORMER "Чёрный Кофе" INDEX 00 03:40:00FILE "02 Жизни рассвет.wav" WAVE INDEX 01 00:00:00 TRACK 03 AUDIO TITLE "Чёрный кофе" PERFORMER "Чёрный Кофе" INDEX 00 03:29:72FILE "03 Чёрный кофе.wav" WAVE INDEX 01 00:00:00 TRACK 04 AUDIO TITLE "Светлый металл" PERFORMER "Чёрный Кофе" INDEX 00 02:46:05FILE "04 Светлый металл.wav" WAVE INDEX 01 00:00:00 TRACK 05 AUDIO TITLE "Где ответ" PERFORMER "Чёрный Кофе" INDEX 00 03:32:12FILE "05 Где ответ.wav" WAVE INDEX 01 00:00:00 TRACK 06 AUDIO TITLE "Ночной ястреб" PERFORMER "Чёрный Кофе" INDEX 00 04:11:48FILE "06 Ночной ястреб.wav" WAVE INDEX 01 00:00:00 TRACK 07 AUDIO TITLE "Краски" PERFORMER "Чёрный Кофе" INDEX 00 05:16:16FILE "07 Краски.wav" WAVE INDEX 01 00:00:00 TRACK 08 AUDIO TITLE "Ветер" PERFORMER "Чёрный Кофе" INDEX 00 04:11:11FILE "08 Ветер.wav" WAVE INDEX 01 00:00:00 TRACK 09 AUDIO TITLE "Где-то в слезах" PERFORMER "Чёрный Кофе" INDEX 00 05:16:14FILE "09 Где-то в слезах.wav" WAVE INDEX 01 00:00:00 TRACK 10 AUDIO TITLE "Мёртвые души" PERFORMER "Чёрный Кофе" INDEX 00 04:28:47FILE "10 Мёртвые души.wav" WAVE INDEX 01 00:00:00 TRACK 11 AUDIO TITLE "Остров" PERFORMER "Чёрный Кофе" INDEX 00 04:19:12FILE "11 Остров.wav" WAVE INDEX 01 00:00:00 TRACK 12 AUDIO TITLE "Обитель" PERFORMER "Чёрный Кофе" INDEX 00 06:05:73FILE "12 Обитель.wav" WAVE INDEX 01 00:00:00 TRACK 13 AUDIO TITLE "Светлый образ" PERFORMER "Чёрный Кофе" INDEX 00 04:04:44FILE "13 Светлый образ.wav" WAVE INDEX 01 00:00:00 TRACK 14 AUDIO TITLE "И только мы" PERFORMER "Чёрный Кофе" INDEX 00 04:16:13FILE "14 И только мы.wav" WAVE INDEX 01 00:00:00 TRACK 15 AUDIO TITLE "Рок!" PERFORMER "Чёрный Кофе" INDEX 00 03:43:13FILE "15 Рок!.wav" WAVE INDEX 01 00:00:00
    Скачать .torrent

    Скачать торрент-файл бесплатно и на максимальной скорости!

    Как скачивать? · Что такое торрент? · Рейтинг и ограничения

    !ВНИМАНИЕ!
    Сайт не распространяет и не хранит электронные версии произведений, а занимается лишь лишь предоставлением доступа к создаваемому пользователями каталогу ссылок на торрент-файлы, которые содержат только списки хеш-сумм, убедительная просьба с жалобами обращаться напрямую к пользователю. Файлы для обмена на трекере предоставлены пользователями сайта, и администрация не несёт ответственности за их содержание. Просьба не заливать файлы, защищенные авторскими правами, а также файлы нелегального содержания!

    [Профиль] [ЛС]
    Показать сообщения:    
    Ответить на тему

    Текущее время: Сегодня, в 16:22

    Часовой пояс: GMT + 2



    Вы не можете начинать темы
    Вы не можете отвечать на сообщения
    Вы не можете редактировать свои сообщения
    Вы не можете удалять свои сообщения
    Вы не можете голосовать в опросах
    Вы не можете прикреплять файлы к сообщениям
    Вы не можете скачивать файлы