BitTorrentTracker PerecTracker.org
BitTorrentTracker PerecTracker.org
    
Регистрация  ·  Вход
 
 · 
Забыли пароль?

  • (Rock) Танцы Минус - Лови настроение рок-н-ролл - 2007, FLAC (tracks+.cue), lossless

    Ответить на тему
     
    Автор Сообщение

    Columb

    Создавать темы 02-Июн-2014 08:49

           

    [Цитировать]

    Танцы Минус / Лови настроение рок-н-ролл
    Жанр: Rock
    Носитель: CD
    Страна-производитель диска: Россия
    Год издания: 2007
    Издатель (лейбл): Никитин
    Номер по каталогу: ТФН-CD674/06
    Страна: Россия
    Аудиокодек: FLAC (*.flac)
    Тип рипа: tracks+.cue
    Битрейт аудио: lossless
    Продолжительность: 01:05:53
    Источник (релизер): собственный диск
    Наличие сканов в содержимом раздачи: нет
    Треклист:
    1. Жуть
    2. 10 капель
    3. Реки
    4. Ждать
    5. Дискорок
    6. Иду
    7. Я не ты
    8. Романтика
    9. Дерево
    10. Город
    11. Из Ленинграда
    12. Я рад
    13. Улетаем
    14. Стеклянное сердце
    15. Пришла пора
    16. Камни
    17. Просыпальная

    Содержание индексной карты (.CUE)

    REM GENRE RockREM DATE 2007REM DISCID D20F7111REM COMMENT "ExactAudioCopy v1.0b3"PERFORMER "Танцы Минус"TITLE "Лови настроение рок-н-ролл"FILE "01 Жуть.wav" WAVE TRACK 01 AUDIO TITLE "Жуть" PERFORMER "Танцы Минус" FLAGS DCP INDEX 01 00:00:00 TRACK 02 AUDIO TITLE "10 капель" PERFORMER "Танцы Минус" FLAGS DCP INDEX 00 03:49:27FILE "02 10 капель.wav" WAVE INDEX 01 00:00:00 TRACK 03 AUDIO TITLE "Реки" PERFORMER "Танцы Минус" FLAGS DCP INDEX 00 02:51:13FILE "03 Реки.wav" WAVE INDEX 01 00:00:00 TRACK 04 AUDIO TITLE "Ждать" PERFORMER "Танцы Минус" FLAGS DCP INDEX 00 03:11:41FILE "04 Ждать.wav" WAVE INDEX 01 00:00:00 TRACK 05 AUDIO TITLE "Дискорок" PERFORMER "Танцы Минус" FLAGS DCP INDEX 00 05:00:04FILE "05 Дискорок.wav" WAVE INDEX 01 00:00:00 TRACK 06 AUDIO TITLE "Иду" PERFORMER "Танцы Минус" FLAGS DCP INDEX 00 04:13:51FILE "06 Иду.wav" WAVE INDEX 01 00:00:00 TRACK 07 AUDIO TITLE "Я не ты" PERFORMER "Танцы Минус" FLAGS DCP INDEX 00 03:36:57FILE "07 Я не ты.wav" WAVE INDEX 01 00:00:00 TRACK 08 AUDIO TITLE "Романтика" PERFORMER "Танцы Минус" FLAGS DCP INDEX 00 03:13:57FILE "08 Романтика.wav" WAVE INDEX 01 00:00:00 TRACK 09 AUDIO TITLE "Дерево" PERFORMER "Танцы Минус" FLAGS DCP INDEX 00 04:14:10FILE "09 Дерево.wav" WAVE INDEX 01 00:00:00 TRACK 10 AUDIO TITLE "Город" PERFORMER "Танцы Минус" FLAGS DCP INDEX 00 03:53:29FILE "10 Город.wav" WAVE INDEX 01 00:00:00 TRACK 11 AUDIO TITLE "Из Ленинграда" PERFORMER "Танцы Минус" FLAGS DCP INDEX 00 04:06:50FILE "11 Из Ленинграда.wav" WAVE INDEX 01 00:00:00 TRACK 12 AUDIO TITLE "Я рад" PERFORMER "Танцы Минус" FLAGS DCP INDEX 00 04:09:59FILE "12 Я рад.wav" WAVE INDEX 01 00:00:00 TRACK 13 AUDIO TITLE "Улетаем" PERFORMER "Танцы Минус" FLAGS DCP INDEX 00 03:57:10FILE "13 Улетаем.wav" WAVE INDEX 01 00:00:00 TRACK 14 AUDIO TITLE "Стеклянное сердце" PERFORMER "Танцы Минус" FLAGS DCP INDEX 00 04:25:24FILE "14 Стеклянное сердце.wav" WAVE INDEX 01 00:00:00 TRACK 15 AUDIO TITLE "Пришла пора" PERFORMER "Танцы Минус" FLAGS DCP INDEX 00 03:25:35FILE "15 Пришла пора.wav" WAVE INDEX 01 00:00:00 TRACK 16 AUDIO TITLE "Камни" PERFORMER "Танцы Минус" FLAGS DCP INDEX 00 04:02:16FILE "16 Камни.wav" WAVE INDEX 01 00:00:00 TRACK 17 AUDIO TITLE "Просыпальная" PERFORMER "Танцы Минус" FLAGS DCP INDEX 00 03:30:17FILE "17 Просыпальная.wav" WAVE INDEX 01 00:00:00

    Лог ЕАС

    Exact Audio Copy V1.0 beta 3 from 29. August 2011
    EAC extraction logfile from 1. June 2014, 4:46
    Танцы Минус / Лови настроение рок-н-ролл
    Used drive : SlimtypeDVD A DS8A4S Adapter: 1 ID: 0
    Read mode : SecureUtilize accurate stream : YesDefeat audio cache : YesMake use of C2 pointers : No
    Read offset correction : 6Overread into Lead-In and Lead-Out : NoFill up missing offset samples with silence : YesDelete leading and trailing silent blocks : NoNull samples used in CRC calculations : YesUsed interface : Native Win32 interface for Win NT & 2000Gap handling : Appended to previous track
    Used output format : User Defined EncoderSelected bitrate : 128 kBit/sQuality : HighAdd ID3 tag : NoCommand line compressor : C:\Program Files\Exact Audio Copy\Flac\flac.exeAdditional command line options : -V -8 -T "Date=%year%" -T "Genre=%genre%" %source%
    TOC of the extracted CD
    Track | Start | Length | Start sector | End sector --------------------------------------------------------- 1 | 0:00.00 | 3:51.27 | 0 | 17351 2 | 3:51.27 | 2:53.13 | 17352 | 30339 3 | 6:44.40 | 3:13.41 | 30340 | 44855 4 | 9:58.06 | 5:02.04 | 44856 | 67509 5 | 15:00.10 | 4:15.51 | 67510 | 86685 6 | 19:15.61 | 3:38.57 | 86686 | 103092 7 | 22:54.43 | 3:15.57 | 103093 | 117774 8 | 26:10.25 | 4:16.10 | 117775 | 136984 9 | 30:26.35 | 3:55.29 | 136985 | 154638 10 | 34:21.64 | 4:08.50 | 154639 | 173288 11 | 38:30.39 | 4:11.59 | 173289 | 192172 12 | 42:42.23 | 3:59.10 | 192173 | 210107 13 | 46:41.33 | 4:27.24 | 210108 | 230156 14 | 51:08.57 | 3:27.35 | 230157 | 245716 15 | 54:36.17 | 4:04.16 | 245717 | 264032 16 | 58:40.33 | 3:32.17 | 264033 | 279949 17 | 62:12.50 | 3:40.48 | 279950 | 296497
    Track 1
    Filename G:\Танцы Минус\Танцы Минус - Лови настроение рок-н-ролл (2007)\01 Жуть.wav
    Pre-gap length 0:00:02.00
    Peak level 99.9 % Extraction speed 1.8 X Track quality 100.0 % Test CRC 94644071 Copy CRC 94644071 Copy OK
    Track 2
    Filename G:\Танцы Минус\Танцы Минус - Лови настроение рок-н-ролл (2007)\02 10 капель.wav
    Pre-gap length 0:00:02.00
    Peak level 99.9 % Extraction speed 1.9 X Track quality 100.0 % Test CRC 968DAD89 Copy CRC 968DAD89 Copy OK
    Track 3
    Filename G:\Танцы Минус\Танцы Минус - Лови настроение рок-н-ролл (2007)\03 Реки.wav
    Pre-gap length 0:00:02.00
    Peak level 99.9 % Extraction speed 1.8 X Track quality 99.9 % Test CRC 35619C3A Copy CRC 35619C3A Copy OK
    Track 4
    Filename G:\Танцы Минус\Танцы Минус - Лови настроение рок-н-ролл (2007)\04 Ждать.wav
    Pre-gap length 0:00:02.00
    Peak level 99.9 % Extraction speed 2.4 X Track quality 100.0 % Test CRC FDE09B36 Copy CRC FDE09B36 Copy OK
    Track 5
    Filename G:\Танцы Минус\Танцы Минус - Лови настроение рок-н-ролл (2007)\05 Дискорок.wav
    Pre-gap length 0:00:02.00
    Peak level 99.9 % Extraction speed 2.5 X Track quality 100.0 % Test CRC 547075EA Copy CRC 547075EA Copy OK
    Track 6
    Filename G:\Танцы Минус\Танцы Минус - Лови настроение рок-н-ролл (2007)\06 Иду.wav
    Pre-gap length 0:00:02.00
    Peak level 99.9 % Extraction speed 2.3 X Track quality 99.9 % Test CRC 44E8DDDA Copy CRC 44E8DDDA Copy OK
    Track 7
    Filename G:\Танцы Минус\Танцы Минус - Лови настроение рок-н-ролл (2007)\07 Я не ты.wav
    Pre-gap length 0:00:02.00
    Peak level 99.9 % Extraction speed 2.7 X Track quality 100.0 % Test CRC 7EABCC77 Copy CRC 7EABCC77 Copy OK
    Track 8
    Filename G:\Танцы Минус\Танцы Минус - Лови настроение рок-н-ролл (2007)\08 Романтика.wav
    Pre-gap length 0:00:02.00
    Peak level 99.9 % Extraction speed 2.9 X Track quality 100.0 % Test CRC E7F9EDD9 Copy CRC E7F9EDD9 Copy OK
    Track 9
    Filename G:\Танцы Минус\Танцы Минус - Лови настроение рок-н-ролл (2007)\09 Дерево.wav
    Pre-gap length 0:00:02.00
    Peak level 99.9 % Extraction speed 2.7 X Track quality 99.9 % Test CRC B07D1D19 Copy CRC B07D1D19 Copy OK
    Track 10
    Filename G:\Танцы Минус\Танцы Минус - Лови настроение рок-н-ролл (2007)\10 Город.wav
    Pre-gap length 0:00:02.00
    Peak level 99.9 % Extraction speed 2.8 X Track quality 99.9 % Test CRC 6B416415 Copy CRC 6B416415 Copy OK
    Track 11
    Filename G:\Танцы Минус\Танцы Минус - Лови настроение рок-н-ролл (2007)\11 Из Ленинграда.wav
    Pre-gap length 0:00:02.00
    Peak level 99.9 % Extraction speed 3.3 X Track quality 100.0 % Test CRC 3FC70E1C Copy CRC 3FC70E1C Copy OK
    Track 12
    Filename G:\Танцы Минус\Танцы Минус - Лови настроение рок-н-ролл (2007)\12 Я рад.wav
    Pre-gap length 0:00:02.00
    Peak level 99.9 % Extraction speed 3.4 X Track quality 100.0 % Test CRC 06AEC4F5 Copy CRC 06AEC4F5 Copy OK
    Track 13
    Filename G:\Танцы Минус\Танцы Минус - Лови настроение рок-н-ролл (2007)\13 Улетаем.wav
    Pre-gap length 0:00:02.00
    Peak level 99.9 % Extraction speed 3.5 X Track quality 100.0 % Test CRC CD58EEB9 Copy CRC CD58EEB9 Copy OK
    Track 14
    Filename G:\Танцы Минус\Танцы Минус - Лови настроение рок-н-ролл (2007)\14 Стеклянное сердце.wav
    Pre-gap length 0:00:02.00
    Peak level 99.9 % Extraction speed 3.0 X Track quality 99.9 % Test CRC F871BF6F Copy CRC F871BF6F Copy OK
    Track 15
    Filename G:\Танцы Минус\Танцы Минус - Лови настроение рок-н-ролл (2007)\15 Пришла пора.wav
    Pre-gap length 0:00:02.00
    Peak level 99.9 % Extraction speed 3.7 X Track quality 100.0 % Test CRC 12F33E9A Copy CRC 12F33E9A Copy OK
    Track 16
    Filename G:\Танцы Минус\Танцы Минус - Лови настроение рок-н-ролл (2007)\16 Камни.wav
    Pre-gap length 0:00:02.00
    Peak level 99.9 % Extraction speed 3.7 X Track quality 100.0 % Test CRC 3AD0087D Copy CRC 3AD0087D Copy OK
    Track 17
    Filename G:\Танцы Минус\Танцы Минус - Лови настроение рок-н-ролл (2007)\17 Просыпальная.wav
    Pre-gap length 0:00:02.00
    Peak level 99.9 % Extraction speed 3.8 X Track quality 100.0 % Test CRC 0F1AE1D2 Copy CRC 0F1AE1D2 Copy OK
    No errors occurred
    End of status report
    ==== Log checksum 5781673235D4A0F979FE5BAF64823F654F356B81792C21E7878DEDB3C22776A1 ====
    Скачать .torrent

    Скачать торрент-файл бесплатно и на максимальной скорости!

    Как скачивать? · Что такое торрент? · Рейтинг и ограничения

    !ВНИМАНИЕ!
    Сайт не распространяет и не хранит электронные версии произведений, а занимается лишь лишь предоставлением доступа к создаваемому пользователями каталогу ссылок на торрент-файлы, которые содержат только списки хеш-сумм, убедительная просьба с жалобами обращаться напрямую к пользователю. Файлы для обмена на трекере предоставлены пользователями сайта, и администрация не несёт ответственности за их содержание. Просьба не заливать файлы, защищенные авторскими правами, а также файлы нелегального содержания!

    [Профиль] [ЛС]
    Показать сообщения:    
    Ответить на тему

    Текущее время: Сегодня, в 20:30

    Часовой пояс: GMT + 2



    Вы не можете начинать темы
    Вы не можете отвечать на сообщения
    Вы не можете редактировать свои сообщения
    Вы не можете удалять свои сообщения
    Вы не можете голосовать в опросах
    Вы не можете прикреплять файлы к сообщениям
    Вы не можете скачивать файлы